  0
SECTION
  2
HEADER
  9
$ACADVER
  1
AC1015
  9
$ACADMAINTVER
 70
     6
  9
$DWGCODEPAGE
  3
ANSI_1252
  9
$INSBASE
 10
0.0
 20
0.0
 30
0.0
  9
$EXTMIN
 10
-49.2952436993386
 20
-170.2512138116131
 30
0.0
  9
$EXTMAX
 10
53.9265535151604
 20
101.3763811866981
 30
0.0
  9
$LIMMIN
 10
0.0
 20
0.0
  9
$LIMMAX
 10
12.0
 20
9.0
  9
$ORTHOMODE
 70
     0
  9
$REGENMODE
 70
     1
  9
$FILLMODE
 70
     1
  9
$QTEXTMODE
 70
     0
  9
$MIRRTEXT
 70
     1
  9
$LTSCALE
 40
1.0
  9
$ATTMODE
 70
     1
  9
$TEXTSIZE
 40
0.2
  9
$TRACEWID
 40
0.05
  9
$TEXTSTYLE
  7
Standard
  9
$CLAYER
  8
0
  9
$CELTYPE
  6
ByLayer
  9
$CECOLOR
 62
   256
  9
$CELTSCALE
 40
1.0
  9
$DISPSILH
 70
     0
  9
$DIMSCALE
 40
1.0
  9
$DIMASZ
 40
0.18
  9
$DIMEXO
 40
0.0625
  9
$DIMDLI
 40
0.38
  9
$DIMRND
 40
0.0
  9
$DIMDLE
 40
0.0
  9
$DIMEXE
 40
0.18
  9
$DIMTP
 40
0.0
  9
$DIMTM
 40
0.0
  9
$DIMTXT
 40
0.18
  9
$DIMCEN
 40
0.09
  9
$DIMTSZ
 40
0.0
  9
$DIMTOL
 70
     0
  9
$DIMLIM
 70
     0
  9
$DIMTIH
 70
     1
  9
$DIMTOH
 70
     1
  9
$DIMSE1
 70
     0
  9
$DIMSE2
 70
     0
  9
$DIMTAD
 70
     0
  9
$DIMZIN
 70
     0
  9
$DIMBLK
  1

  9
$DIMASO
 70
     1
  9
$DIMSHO
 70
     1
  9
$DIMPOST
  1

  9
$DIMAPOST
  1

  9
$DIMALT
 70
     0
  9
$DIMALTD
 70
     2
  9
$DIMALTF
 40
25.4
  9
$DIMLFAC
 40
1.0
  9
$DIMTOFL
 70
     0
  9
$DIMTVP
 40
0.0
  9
$DIMTIX
 70
     0
  9
$DIMSOXD
 70
     0
  9
$DIMSAH
 70
     0
  9
$DIMBLK1
  1

  9
$DIMBLK2
  1

  9
$DIMSTYLE
  2
Standard
  9
$DIMCLRD
 70
     0
  9
$DIMCLRE
 70
     0
  9
$DIMCLRT
 70
     0
  9
$DIMTFAC
 40
1.0
  9
$DIMGAP
 40
0.09
  9
$DIMJUST
 70
     0
  9
$DIMSD1
 70
     0
  9
$DIMSD2
 70
     0
  9
$DIMTOLJ
 70
     1
  9
$DIMTZIN
 70
     0
  9
$DIMALTZ
 70
     0
  9
$DIMALTTZ
 70
     0
  9
$DIMUPT
 70
     0
  9
$DIMDEC
 70
     4
  9
$DIMTDEC
 70
     4
  9
$DIMALTU
 70
     2
  9
$DIMALTTD
 70
     2
  9
$DIMTXSTY
  7
Standard
  9
$DIMAUNIT
 70
     0
  9
$DIMADEC
 70
     0
  9
$DIMALTRND
 40
0.0
  9
$DIMAZIN
 70
     0
  9
$DIMDSEP
 70
    46
  9
$DIMATFIT
 70
     3
  9
$DIMFRAC
 70
     0
  9
$DIMLDRBLK
  1

  9
$DIMLUNIT
 70
     2
  9
$DIMLWD
 70
    -2
  9
$DIMLWE
 70
    -2
  9
$DIMTMOVE
 70
     0
  9
$LUNITS
 70
     2
  9
$LUPREC
 70
     4
  9
$SKETCHINC
 40
0.1
  9
$FILLETRAD
 40
0.5
  9
$AUNITS
 70
     0
  9
$AUPREC
 70
     0
  9
$MENU
  1
.
  9
$ELEVATION
 40
0.0
  9
$PELEVATION
 40
0.0
  9
$THICKNESS
 40
0.0
  9
$LIMCHECK
 70
     0
  9
$CHAMFERA
 40
0.5
  9
$CHAMFERB
 40
0.5
  9
$CHAMFERC
 40
1.0
  9
$CHAMFERD
 40
0.0
  9
$SKPOLY
 70
     0
  9
$TDCREATE
 40
2454701.48803397
  9
$TDUCREATE
 40
2454701.404700636
  9
$TDUPDATE
 40
2454701.488033982
  9
$TDUUPDATE
 40
2454701.404700648
  9
$TDINDWG
 40
0.0000000116
  9
$TDUSRTIMER
 40
0.0000000116
  9
$USRTIMER
 70
     1
  9
$ANGBASE
 50
0.0
  9
$ANGDIR
 70
     0
  9
$PDMODE
 70
     0
  9
$PDSIZE
 40
0.0
  9
$PLINEWID
 40
0.0
  9
$SPLFRAME
 70
     0
  9
$SPLINETYPE
 70
     6
  9
$SPLINESEGS
 70
     8
  9
$HANDSEED
  5
2AE
  9
$SURFTAB1
 70
     6
  9
$SURFTAB2
 70
     6
  9
$SURFTYPE
 70
     6
  9
$SURFU
 70
     6
  9
$SURFV
 70
     6
  9
$UCSBASE
  2

  9
$UCSNAME
  2

  9
$UCSORG
 10
0.0
 20
0.0
 30
0.0
  9
$UCSXDIR
 10
1.0
 20
0.0
 30
0.0
  9
$UCSYDIR
 10
0.0
 20
1.0
 30
0.0
  9
$UCSORTHOREF
  2

  9
$UCSORTHOVIEW
 70
     0
  9
$UCSORGTOP
 10
0.0
 20
0.0
 30
0.0
  9
$UCSORGBOTTOM
 10
0.0
 20
0.0
 30
0.0
  9
$UCSORGLEFT
 10
0.0
 20
0.0
 30
0.0
  9
$UCSORGRIGHT
 10
0.0
 20
0.0
 30
0.0
  9
$UCSORGFRONT
 10
0.0
 20
0.0
 30
0.0
  9
$UCSORGBACK
 10
0.0
 20
0.0
 30
0.0
  9
$PUCSBASE
  2

  9
$PUCSNAME
  2

  9
$PUCSORG
 10
0.0
 20
0.0
 30
0.0
  9
$PUCSXDIR
 10
1.0
 20
0.0
 30
0.0
  9
$PUCSYDIR
 10
0.0
 20
1.0
 30
0.0
  9
$PUCSORTHOREF
  2

  9
$PUCSORTHOVIEW
 70
     0
  9
$PUCSORGTOP
 10
0.0
 20
0.0
 30
0.0
  9
$PUCSORGBOTTOM
 10
0.0
 20
0.0
 30
0.0
  9
$PUCSORGLEFT
 10
0.0
 20
0.0
 30
0.0
  9
$PUCSORGRIGHT
 10
0.0
 20
0.0
 30
0.0
  9
$PUCSORGFRONT
 10
0.0
 20
0.0
 30
0.0
  9
$PUCSORGBACK
 10
0.0
 20
0.0
 30
0.0
  9
$USERI1
 70
     0
  9
$USERI2
 70
     0
  9
$USERI3
 70
     0
  9
$USERI4
 70
     0
  9
$USERI5
 70
     0
  9
$USERR1
 40
15.5
  9
$USERR2
 40
0.0
  9
$USERR3
 40
0.0
  9
$USERR4
 40
0.0
  9
$USERR5
 40
0.0
  9
$WORLDVIEW
 70
     1
  9
$SHADEDGE
 70
     3
  9
$SHADEDIF
 70
    70
  9
$TILEMODE
 70
     1
  9
$MAXACTVP
 70
    64
  9
$PINSBASE
 10
0.0
 20
0.0
 30
0.0
  9
$PLIMCHECK
 70
     0
  9
$PEXTMIN
 10
1.00000000000000E+20
 20
1.00000000000000E+20
 30
1.00000000000000E+20
  9
$PEXTMAX
 10
-1.00000000000000E+20
 20
-1.00000000000000E+20
 30
-1.00000000000000E+20
  9
$PLIMMIN
 10
0.0
 20
0.0
  9
$PLIMMAX
 10
12.0
 20
9.0
  9
$UNITMODE
 70
     0
  9
$VISRETAIN
 70
     1
  9
$PLINEGEN
 70
     0
  9
$PSLTSCALE
 70
     1
  9
$TREEDEPTH
 70
  3020
  9
$CMLSTYLE
  2
Standard
  9
$CMLJUST
 70
     0
  9
$CMLSCALE
 40
1.0
  9
$PROXYGRAPHICS
 70
     1
  9
$MEASUREMENT
 70
     1
  9
$CELWEIGHT
370
    -1
  9
$ENDCAPS
280
     0
  9
$JOINSTYLE
280
     0
  9
$LWDISPLAY
290
     0
  9
$INSUNITS
 70
     1
  9
$HYPERLINKBASE
  1

  9
$STYLESHEET
  1

  9
$XEDIT
290
     1
  9
$CEPSNTYPE
380
     0
  9
$PSTYLEMODE
290
     1
  9
$FINGERPRINTGUID
  2
{7C5B7A1C-60C0-4C85-999C-EE050F45F6EE}
  9
$VERSIONGUID
  2
{FAEB1C32-E019-11D5-929B-00C0DF256EC4}
  9
$EXTNAMES
290
     1
  9
$PSVPSCALE
 40
0.0
  9
$OLESTARTUP
290
     0
  0
ENDSEC
  0
SECTION
  2
CLASSES
  0
CLASS
  1
ACDBDICTIONARYWDFLT
  2
AcDbDictionaryWithDefault
  3
ObjectDBX Classes
 90
        0
280
     0
281
     0
  0
CLASS
  1
VISUALSTYLE
  2
AcDbVisualStyle
  3
ObjectDBX Classes
 90
     4095
280
     0
281
     0
  0
CLASS
  1

  2
exOdDbCircle
  3

 90
        0
280
     0
281
     1
  0
CLASS
  1

  2
exOdDbSpline
  3

 90
        0
280
     0
281
     1
  0
CLASS
  1
ACDBPLACEHOLDER
  2
AcDbPlaceHolder
  3
ObjectDBX Classes
 90
        0
280
     0
281
     0
  0
CLASS
  1
LAYOUT
  2
AcDbLayout
  3
ObjectDBX Classes
 90
        0
280
     0
281
     0
  0
ENDSEC
  0
SECTION
  2
TABLES
  0
TABLE
  2
VPORT
  5
8
330
0
100
AcDbSymbolTable
 70
     1
  0
VPORT
  5
29
330
8
100
AcDbSymbolTableRecord
100
AcDbViewportTableRecord
  2
*Active
 70
     0
 10
0.0
 20
0.0
 11
1.0
 21
1.0
 12
2.3156549079109
 22
-34.4374163124575
 13
0.0
 23
0.0
 14
0.5
 24
0.5
 15
0.5
 25
0.5
 16
0.0
 26
0.0
 36
1.0
 17
0.0
 27
0.0
 37
0.0
 40
298.7903544981424
 41
1.60267857142857
 42
50.0
 43
0.0
 44
0.0
 50
0.0
 51
0.0
 71
     0
 72
   100
 73
     1
 74
     3
 75
     0
 76
     0
 77
     0
 78
     0
281
     0
 65
     1
110
0.0
120
0.0
130
0.0
111
1.0
121
0.0
131
0.0
112
0.0
122
1.0
132
0.0
 79
     0
146
0.0
  0
ENDTAB
  0
TABLE
  2
LTYPE
  5
5
330
0
100
AcDbSymbolTable
 70
     8
  0
LTYPE
  5
14
330
5
100
AcDbSymbolTableRecord
100
AcDbLinetypeTableRecord
  2
ByBlock
 70
     0
  3

 72
    65
 73
     0
 40
0.0
  0
LTYPE
  5
15
330
5
100
AcDbSymbolTableRecord
100
AcDbLinetypeTableRecord
  2
ByLayer
 70
     0
  3

 72
    65
 73
     0
 40
0.0
  0
LTYPE
  5
16
330
5
100
AcDbSymbolTableRecord
100
AcDbLinetypeTableRecord
  2
Continuous
 70
     0
  3
Solid line
 72
    65
 73
     0
 40
0.0
  0
LTYPE
  5
3B
330
5
100
AcDbSymbolTableRecord
100
AcDbLinetypeTableRecord
  2
DASHED
 70
     0
  3
Dashed
 72
    65
 73
     2
 40
15.0
 49
7.0
 74
     0
 49
-8.0
 74
     0
  0
LTYPE
  5
3C
330
5
100
AcDbSymbolTableRecord
100
AcDbLinetypeTableRecord
  2
DOTTED
 70
     0
  3
Dotted
 72
    65
 73
     2
 40
1.0
 49
0.0
 74
     0
 49
-1.0
 74
     0
  0
LTYPE
  5
3D
330
5
100
AcDbSymbolTableRecord
100
AcDbLinetypeTableRecord
  2
DOT_CENTER
 70
     0
  3
Dot_Center
 72
    65
 73
     4
 40
14.0
 49
12.0
 74
     0
 49
-1.0
 74
     0
 49
0.0
 74
     0
 49
-1.0
 74
     0
  0
LTYPE
  5
3E
330
5
100
AcDbSymbolTableRecord
100
AcDbLinetypeTableRecord
  2
LONG_DASHED
 70
     0
  3
Long_Dashed
 72
    65
 73
     2
 40
15.0
 49
10.0
 74
     0
 49
-5.0
 74
     0
  0
LTYPE
  5
3F
330
5
100
AcDbSymbolTableRecord
100
AcDbLinetypeTableRecord
  2
DASH_CENTER
 70
     0
  3
Dash_Center
 72
    65
 73
     4
 40
14.0
 49
11.0
 74
     0
 49
-1.0
 74
     0
 49
1.0
 74
     0
 49
-1.0
 74
     0
  0
LTYPE
  5
40
330
5
100
AcDbSymbolTableRecord
100
AcDbLinetypeTableRecord
  2
PHANTOM
 70
     0
  3
Phantom
 72
    65
 73
     6
 40
13.0
 49
10.0
 74
     0
 49
-1.0
 74
     0
 49
0.0
 74
     0
 49
-1.0
 74
     0
 49
0.0
 74
     0
 49
-1.0
 74
     0
  0
LTYPE
  5
41
330
5
100
AcDbSymbolTableRecord
100
AcDbLinetypeTableRecord
  2
CENTER_DASH_DASH
 70
     0
  3
Center_Dash_Dash
 72
    65
 73
     6
 40
14.0
 49
9.0
 74
     0
 49
-1.0
 74
     0
 49
1.0
 74
     0
 49
-1.0
 74
     0
 49
1.0
 74
     0
 49
-1.0
 74
     0
  0
ENDTAB
  0
TABLE
  2
LAYER
  5
2
330
0
100
AcDbSymbolTable
 70
     2
  0
LAYER
  5
10
330
2
100
AcDbSymbolTableRecord
100
AcDbLayerTableRecord
  2
0
 70
     0
 62
     7
  6
Continuous
370
    -3
390
F
  0
LAYER
  5
42
330
2
100
AcDbSymbolTableRecord
100
AcDbLayerTableRecord
  2
1
 70
     0
 62
     7
  6
Continuous
370
    -3
390
F
  0
ENDTAB
  0
TABLE
  2
STYLE
  5
3
330
0
100
AcDbSymbolTable
 70
     2
  0
STYLE
  5
11
330
3
100
AcDbSymbolTableRecord
100
AcDbTextStyleTableRecord
  2
Standard
 70
     0
 40
0.0
 41
1.0
 50
0.0
 71
     0
 42
0.2
  3
txt
  4

  0
STYLE
  5
285
330
3
100
AcDbSymbolTableRecord
100
AcDbTextStyleTableRecord
  2
CONVERTER_11
 70
     0
 40
0.0
 41
0.9
 50
0.0
 71
     0
 42
0.2
  3
txt.shx
  4

  0
ENDTAB
  0
TABLE
  2
VIEW
  5
6
330
0
100
AcDbSymbolTable
 70
     0
  0
ENDTAB
  0
TABLE
  2
UCS
  5
7
330
0
100
AcDbSymbolTable
 70
     0
  0
ENDTAB
  0
TABLE
  2
APPID
  5
9
330
0
100
AcDbSymbolTable
 70
     1
  0
APPID
  5
12
330
9
100
AcDbSymbolTableRecord
100
AcDbRegAppTableRecord
  2
ACAD
 70
     0
  0
ENDTAB
  0
TABLE
  2
DIMSTYLE
  5
A
330
0
100
AcDbSymbolTable
 70
     5
100
AcDbDimStyleTable
  0
DIMSTYLE
105
27
330
A
100
AcDbSymbolTableRecord
100
AcDbDimStyleTableRecord
  2
Standard
 70
     0
340
11
  0
DIMSTYLE
105
289
102
{ACAD_REACTORS
330
28A
102
}
330
A
100
AcDbSymbolTableRecord
100
AcDbDimStyleTableRecord
  2
ME10_DIM_10
 70
     0
  3
DN<>
 41
7.0
 42
0.0
 44
2.0
 73
     0
 74
     0
 77
     1
 78
     8
140
7.0
147
2.0
172
     1
173
     1
176
     4
177
     4
178
     1
271
     2
340
285
  0
DIMSTYLE
105
294
102
{ACAD_REACTORS
330
295
102
}
330
A
100
AcDbSymbolTableRecord
100
AcDbDimStyleTableRecord
  2
ME10_DIM_11
 70
     0
  3
DN<>/DN32
 41
5.0
 42
0.0
 44
2.0
 73
     0
 74
     0
 77
     1
 78
     8
140
5.0
147
2.0
172
     1
173
     1
176
     4
177
     4
178
     1
271
     2
340
285
  0
DIMSTYLE
105
29F
102
{ACAD_REACTORS
330
2A0
102
}
330
A
100
AcDbSymbolTableRecord
100
AcDbDimStyleTableRecord
  2
ME10_DIM_12
 70
     0
 41
7.0
 42
0.0
 44
2.0
 73
     0
 74
     0
 77
     1
 78
     8
140
7.0
147
2.0
172
     1
173
     1
176
     4
177
     4
178
     1
271
     2
340
285
  0
DIMSTYLE
105
2AB
102
{ACAD_REACTORS
330
2AC
102
}
330
A
100
AcDbSymbolTableRecord
100
AcDbDimStyleTableRecord
  2
ME10_DIM_13
 70
     0
 41
7.0
 42
0.0
 44
2.0
 73
     0
 74
     0
 77
     1
 78
     8
140
7.0
147
2.0
172
     1
173
     1
176
     4
177
     4
178
     1
271
     2
340
285
  0
ENDTAB
  0
TABLE
  2
BLOCK_RECORD
  5
1
330
0
100
AcDbSymbolTable
 70
    15
  0
BLOCK_RECORD
  5
1F
330
1
100
AcDbSymbolTableRecord
100
AcDbBlockTableRecord
  2
*Model_Space
340
22
  0
BLOCK_RECORD
  5
1B
330
1
100
AcDbSymbolTableRecord
100
AcDbBlockTableRecord
  2
*Paper_Space
340
1E
  0
BLOCK_RECORD
  5
23
330
1
100
AcDbSymbolTableRecord
100
AcDbBlockTableRecord
  2
*Paper_Space0
340
26
  0
BLOCK_RECORD
  5
43
330
1
100
AcDbSymbolTableRecord
100
AcDbBlockTableRecord
  2
HL904Körper__1
340
0
102
{BLKREFS
331
4D
102
}
  0
BLOCK_RECORD
  5
46
330
1
100
AcDbSymbolTableRecord
100
AcDbBlockTableRecord
  2
HL904Halteplatte
340
0
102
{BLKREFS
331
4E
102
}
  0
BLOCK_RECORD
  5
49
330
1
100
AcDbSymbolTableRecord
100
AcDbBlockTableRecord
  2
HL904Deckel__2
340
0
102
{BLKREFS
331
4F
102
}
  0
BLOCK_RECORD
  5
4C
330
1
100
AcDbSymbolTableRecord
100
AcDbBlockTableRecord
  2
BgrHL904
340
0
102
{BLKREFS
331
53
102
}
  0
BLOCK_RECORD
  5
52
330
1
100
AcDbSymbolTableRecord
100
AcDbBlockTableRecord
  2
Drfsicht1
340
0
102
{BLKREFS
331
68
102
}
  0
BLOCK_RECORD
  5
56
330
1
100
AcDbSymbolTableRecord
100
AcDbBlockTableRecord
  2
HL_904_Übergangsrohr_Artikel
340
0
102
{BLKREFS
331
69
102
}
  0
BLOCK_RECORD
  5
59
330
1
100
AcDbSymbolTableRecord
100
AcDbBlockTableRecord
  2
Holländer6_4
340
0
102
{BLKREFS
331
63
102
}
  0
BLOCK_RECORD
  5
5C
330
1
100
AcDbSymbolTableRecord
100
AcDbBlockTableRecord
  2
HL904Körper__3
340
0
102
{BLKREFS
331
64
102
}
  0
BLOCK_RECORD
  5
5F
330
1
100
AcDbSymbolTableRecord
100
AcDbBlockTableRecord
  2
HL904Deckel__4
340
0
102
{BLKREFS
331
65
102
}
  0
BLOCK_RECORD
  5
62
330
1
100
AcDbSymbolTableRecord
100
AcDbBlockTableRecord
  2
hl904
340
0
102
{BLKREFS
331
6A
102
}
  0
BLOCK_RECORD
  5
27F
330
1
100
AcDbSymbolTableRecord
100
AcDbBlockTableRecord
  2
*D11
340
0
  0
BLOCK_RECORD
  5
28B
330
1
100
AcDbSymbolTableRecord
100
AcDbBlockTableRecord
  2
*D12
340
0
  0
BLOCK_RECORD
  5
296
330
1
100
AcDbSymbolTableRecord
100
AcDbBlockTableRecord
  2
*D13
340
0
  0
BLOCK_RECORD
  5
2A1
330
1
100
AcDbSymbolTableRecord
100
AcDbBlockTableRecord
  2
*D14
340
0
  0
ENDTAB
  0
ENDSEC
  0
SECTION
  2
BLOCKS
  0
BLOCK
  5
20
330
1F
100
AcDbEntity
  8
0
100
AcDbBlockBegin
  2
*Model_Space
 70
     0
 71
     0
 10
0.0
 20
0.0
 30
0.0
  3
*Model_Space
  1

  0
ENDBLK
  5
21
330
1F
100
AcDbEntity
  8
0
100
AcDbBlockEnd
  0
BLOCK
  5
1C
330
1B
100
AcDbEntity
 67
     1
  8
0
100
AcDbBlockBegin
  2
*Paper_Space
 70
     0
 71
     0
 10
0.0
 20
0.0
 30
0.0
  3
*Paper_Space
  1

  0
ENDBLK
  5
1D
330
1B
100
AcDbEntity
 67
     1
  8
0
100
AcDbBlockEnd
  0
BLOCK
  5
24
330
23
100
AcDbEntity
  8
0
100
AcDbBlockBegin
  2
*Paper_Space0
 70
     0
 71
     0
 10
0.0
 20
0.0
 30
0.0
  3
*Paper_Space0
  1

  0
ENDBLK
  5
25
330
23
100
AcDbEntity
  8
0
100
AcDbBlockEnd
  0
BLOCK
  5
44
330
43
100
AcDbEntity
  8
0
100
AcDbBlockBegin
  2
HL904Körper__1
 70
     0
 71
     0
 10
-29.00000000000001
 20
-167.351213811613
 30
0.0
  3
HL904Körper__1
  1

  0
CIRCLE
  5
6B
330
43
100
AcDbEntity
  8
0
  6
Continuous
 62
     7
100
AcDbCircle
 10
0.0
 20
-138.351213811613
 30
0.0
 40
29.00000000000004
  0
ENDBLK
  5
45
330
43
100
AcDbEntity
  8
0
100
AcDbBlockEnd
  0
BLOCK
  5
47
330
46
100
AcDbEntity
  8
0
100
AcDbBlockBegin
  2
HL904Halteplatte
 70
     0
 71
     0
 10
8.5
 20
-139.351213811613
 30
0.0
  3
HL904Halteplatte
  1

  0
LINE
  5
6C
330
46
100
AcDbEntity
  8
0
  6
Continuous
 62
     7
100
AcDbLine
 10
8.5
 20
-139.351213811613
 30
0.0
 11
8.5
 21
-139.038713811613
 31
0.0
  0
ENDBLK
  5
48
330
46
100
AcDbEntity
  8
0
100
AcDbBlockEnd
  0
BLOCK
  5
4A
330
49
100
AcDbEntity
  8
0
100
AcDbBlockBegin
  2
HL904Deckel__2
 70
     0
 71
     0
 10
-29.00000000000001
 20
-167.351213811613
 30
0.0
  3
HL904Deckel__2
  1

  0
LINE
  5
6D
330
49
100
AcDbEntity
  8
0
  6
Continuous
 62
     7
100
AcDbLine
 10
-0.31320398798586
 20
-141.6609488561637
 30
0.0
 11
-1.79988093115141
 21
-144.235948856154
 31
0.0
  0
LINE
  5
6E
330
49
100
AcDbEntity
  8
0
  6
Continuous
 62
     7
100
AcDbLine
 10
-2.91089753055321
 20
-146.1134228609519
 30
0.0
 11
-3.88624960830832
 21
-147.8027822148916
 31
0.0
  0
LINE
  5
6F
330
49
100
AcDbEntity
  8
0
  6
Continuous
 62
     7
100
AcDbLine
 10
-2.73769244979633
 20
-146.2134228609519
 30
0.0
 11
-3.71304452755142
 21
-147.9027822148917
 31
0.0
  0
LINE
  5
70
330
49
100
AcDbEntity
  8
0
  6
Continuous
 62
     7
100
AcDbLine
 10
-3.75
 20
-140.226213811613
 30
0.0
 11
-3.75
 21
-140.851213811613
 31
0.0
  0
LINE
  5
71
330
49
100
AcDbEntity
  8
0
  6
Continuous
 62
     7
100
AcDbLine
 10
-1.79988093115141
 20
-144.235948856154
 30
0.0
 11
-1.62667585039475
 21
-144.3359488561545
 31
0.0
  0
LINE
  5
72
330
49
100
AcDbEntity
  8
0
  6
Continuous
 62
     7
100
AcDbLine
 10
-8.0625
 20
-140.851213811613
 30
0.0
 11
-8.0625
 21
-135.851213811613
 31
0.0
  0
LINE
  5
73
330
49
100
AcDbEntity
  8
0
  6
Continuous
 62
     7
100
AcDbLine
 10
-7.0625
 20
-140.851213811613
 30
0.0
 11
-7.0625
 21
-135.851213811613
 31
0.0
  0
LINE
  5
74
330
49
100
AcDbEntity
  8
0
  6
Continuous
 62
     7
100
AcDbLine
 10
-8.75
 20
-140.851213811613
 30
0.0
 11
-8.0625
 21
-140.851213811613
 31
0.0
  0
LINE
  5
75
330
49
100
AcDbEntity
  8
0
  6
Continuous
 62
     7
100
AcDbLine
 10
-8.75
 20
-138.601213811613
 30
0.0
 11
-8.75
 21
-140.851213811613
 31
0.0
  0
LINE
  5
76
330
49
100
AcDbEntity
  8
0
  6
Continuous
 62
     7
100
AcDbLine
 10
-8.0625
 20
-135.851213811613
 30
0.0
 11
-8.75
 21
-135.851213811613
 31
0.0
  0
LINE
  5
77
330
49
100
AcDbEntity
  8
0
  6
Continuous
 62
     7
100
AcDbLine
 10
-8.75
 20
-135.851213811613
 30
0.0
 11
-8.75
 21
-137.976213811613
 31
0.0
  0
LINE
  5
78
330
49
100
AcDbEntity
  8
0
  6
Continuous
 62
     7
100
AcDbLine
 10
-12.0
 20
-140.851213811613
 30
0.0
 11
-11.3125
 21
-140.851213811613
 31
0.0
  0
LINE
  5
79
330
49
100
AcDbEntity
  8
0
  6
Continuous
 62
     7
100
AcDbLine
 10
-11.3125
 20
-140.851213811613
 30
0.0
 11
-11.3125
 21
-138.601213811613
 31
0.0
  0
LINE
  5
7A
330
49
100
AcDbEntity
  8
0
  6
Continuous
 62
     7
100
AcDbLine
 10
-12.0
 20
-135.851213811613
 30
0.0
 11
-12.0
 21
-140.851213811613
 31
0.0
  0
LINE
  5
7B
330
49
100
AcDbEntity
  8
0
  6
Continuous
 62
     7
100
AcDbLine
 10
1.09516079166106
 20
-143.4503082101031
 30
0.0
 11
0.11980871390598
 21
-141.7609488561634
 31
0.0
  0
LINE
  5
7C
330
49
100
AcDbEntity
  8
0
  6
Continuous
 62
     7
100
AcDbLine
 10
-0.1399989072292
 20
-141.7609488561641
 30
0.0
 11
-1.62667585039475
 21
-144.3359488561545
 31
0.0
  0
LINE
  5
7D
330
49
100
AcDbEntity
  8
0
  6
Continuous
 62
     7
100
AcDbLine
 10
1.20240138430415
 20
-149.2578551605971
 30
0.0
 11
0.14009082174235
 21
-149.2578551605971
 31
0.0
  0
LINE
  5
7E
330
49
100
AcDbEntity
  8
0
  6
Continuous
 62
     7
100
AcDbLine
 10
-0.5688514137576
 20
-150.4006683601124
 30
0.0
 11
-0.38234286183184
 21
-150.2763293254952
 31
0.0
  0
LINE
  5
7F
330
49
100
AcDbEntity
  8
0
  6
Continuous
 62
     7
100
AcDbLine
 10
0.16637666467072
 20
-146.3383149608868
 30
0.0
 11
0.84510443068754
 21
-146.3383149608868
 31
0.0
  0
LINE
  5
80
330
49
100
AcDbEntity
  8
0
  6
Continuous
 62
     7
100
AcDbLine
 10
0.36637666467071
 20
-145.2383149608868
 30
0.0
 11
0.36637666467071
 21
-144.8383149608868
 31
0.0
  0
LINE
  5
81
330
49
100
AcDbEntity
  8
0
  6
Continuous
 62
     7
100
AcDbLine
 10
0.16637666467072
 20
-146.1383149608869
 30
0.0
 11
0.81264889865386
 21
-146.1383149608869
 31
0.0
  0
LINE
  5
82
330
49
100
AcDbEntity
  8
0
  6
Continuous
 62
     7
100
AcDbLine
 10
0.81897471331142
 20
-145.4383149608868
 30
0.0
 11
0.16637666467072
 21
-145.4383149608868
 31
0.0
  0
LINE
  5
83
330
49
100
AcDbEntity
  8
0
  6
Continuous
 62
     7
100
AcDbLine
 10
0.16637666467072
 20
-145.4383149608868
 30
0.0
 11
0.16637666467072
 21
-144.6383149608869
 31
0.0
  0
LINE
  5
84
330
49
100
AcDbEntity
  8
0
  6
Continuous
 62
     7
100
AcDbLine
 10
0.16637666467072
 20
-146.3383149608868
 30
0.0
 11
0.16637666467072
 21
-146.1383149608869
 31
0.0
  0
LINE
  5
85
330
49
100
AcDbEntity
  8
0
  6
Continuous
 62
     7
100
AcDbLine
 10
0.83877861602998
 20
-145.2383149608868
 30
0.0
 11
0.36637666467071
 21
-145.2383149608868
 31
0.0
  0
LINE
  5
86
330
49
100
AcDbEntity
  8
0
  6
Continuous
 62
     7
100
AcDbLine
 10
0.14009082174235
 20
-149.2578551605971
 30
0.0
 11
0.14009082174235
 21
-151.357855160597
 31
0.0
  0
LINE
  5
87
330
49
100
AcDbEntity
  8
0
  6
Continuous
 62
     7
100
AcDbLine
 10
-0.65096694275775
 20
-150.2150419610815
 30
0.0
 11
-0.53747549468356
 21
-150.1393809956987
 31
0.0
  0
LINE
  5
88
330
49
100
AcDbEntity
  8
0
  6
Continuous
 62
     7
100
AcDbLine
 10
-0.53747549468356
 20
-150.1393809956987
 30
0.0
 11
-0.50253014652449
 21
-150.0694902993807
 31
0.0
  0
LINE
  5
89
330
49
100
AcDbEntity
  8
0
  6
Continuous
 62
     7
100
AcDbLine
 10
-0.38234286183184
 20
-150.2763293254952
 30
0.0
 11
-0.31728820999078
 21
-150.1462200218132
 31
0.0
  0
LINE
  5
8A
330
49
100
AcDbEntity
  8
0
  6
Continuous
 62
     7
100
AcDbLine
 10
0.34009082174235
 20
-150.457855160597
 30
0.0
 11
0.34009082174235
 21
-151.357855160597
 31
0.0
  0
LINE
  5
8B
330
49
100
AcDbEntity
  8
0
  6
Continuous
 62
     7
100
AcDbLine
 10
0.34009082174235
 20
-151.357855160597
 30
0.0
 11
0.14009082174235
 21
-151.357855160597
 31
0.0
  0
LINE
  5
8C
330
49
100
AcDbEntity
  8
0
  6
Continuous
 62
     7
100
AcDbLine
 10
-1.65990917825765
 20
-151.357855160597
 30
0.0
 11
-1.85990917825765
 21
-151.357855160597
 31
0.0
  0
LINE
  5
8D
330
49
100
AcDbEntity
  8
0
  6
Continuous
 62
     7
100
AcDbLine
 10
-1.65990917825765
 20
-149.457855160597
 30
0.0
 11
-1.65990917825765
 21
-150.2578551605971
 31
0.0
  0
LINE
  5
8E
330
49
100
AcDbEntity
  8
0
  6
Continuous
 62
     7
100
AcDbLine
 10
-1.65990917825765
 20
-150.457855160597
 30
0.0
 11
-1.65990917825765
 21
-151.357855160597
 31
0.0
  0
LINE
  5
8F
330
49
100
AcDbEntity
  8
0
  6
Continuous
 62
     7
100
AcDbLine
 10
-1.85990917825765
 20
-149.2578551605971
 30
0.0
 11
-1.85990917825765
 21
-151.357855160597
 31
0.0
  0
LINE
  5
90
330
49
100
AcDbEntity
  8
0
  6
Continuous
 62
     7
100
AcDbLine
 10
-0.95983227649485
 20
-144.7731025458151
 30
0.0
 11
-1.05330877684206
 21
-144.8665790461621
 31
0.0
  0
LINE
  5
91
330
49
100
AcDbEntity
  8
0
  6
Continuous
 62
     7
100
AcDbLine
 10
-0.82795069685893
 20
-144.6851814927243
 30
0.0
 11
-0.95983227649485
 21
-144.7731025458151
 31
0.0
  0
LINE
  5
92
330
49
100
AcDbEntity
  8
0
  6
Continuous
 62
     7
100
AcDbLine
 10
-0.68735110134612
 20
-144.6383149608869
 30
0.0
 11
-0.82795069685893
 21
-144.6851814927243
 31
0.0
  0
LINE
  5
93
330
49
100
AcDbEntity
  8
0
  6
Continuous
 62
     7
100
AcDbLine
 10
-0.57989556931254
 20
-144.6383149608869
 30
0.0
 11
-0.68735110134612
 21
-144.6383149608869
 31
0.0
  0
LINE
  5
94
330
49
100
AcDbEntity
  8
0
  6
Continuous
 62
     7
100
AcDbLine
 10
-0.60978683066442
 20
-148.3277822148979
 30
0.0
 11
-0.60978683066398
 21
-148.1277822148981
 31
0.0
  0
LINE
  5
95
330
49
100
AcDbEntity
  8
0
  6
Continuous
 62
     7
100
AcDbLine
 10
-0.82221974081938
 20
-150.2578551605971
 30
0.0
 11
-0.65096694275775
 21
-150.2150419610815
 31
0.0
  0
LINE
  5
96
330
49
100
AcDbEntity
  8
0
  6
Continuous
 62
     7
100
AcDbLine
 10
-0.79759861569585
 20
-150.457855160597
 30
0.0
 11
-0.5688514137576
 21
-150.4006683601124
 31
0.0
  0
LINE
  5
97
330
49
100
AcDbEntity
  8
0
  6
Continuous
 62
     7
100
AcDbLine
 10
-0.21393789381662
 20
-144.8665790461621
 30
0.0
 11
-0.30741439416381
 21
-144.7731025458151
 31
0.0
  0
LINE
  5
98
330
49
100
AcDbEntity
  8
0
  6
Continuous
 62
     7
100
AcDbLine
 10
-0.45990917825769
 20
-149.7740829266138
 30
0.0
 11
-0.50253014652449
 21
-149.6462200218132
 31
0.0
  0
LINE
  5
99
330
49
100
AcDbEntity
  8
0
  6
Continuous
 62
     7
100
AcDbLine
 10
-0.25990917825769
 20
-149.9740829266139
 30
0.0
 11
-0.25990917825769
 21
-149.7416273945802
 31
0.0
  0
LINE
  5
9A
330
49
100
AcDbEntity
  8
0
  6
Continuous
 62
     7
100
AcDbLine
 10
-0.45990917825769
 20
-149.9416273945801
 30
0.0
 11
-0.45990917825769
 21
-149.7740829266138
 31
0.0
  0
LINE
  5
9B
330
49
100
AcDbEntity
  8
0
  6
Continuous
 62
     7
100
AcDbLine
 10
-0.43929597379973
 20
-144.6851814927243
 30
0.0
 11
-0.57989556931254
 21
-144.6383149608869
 31
0.0
  0
LINE
  5
9C
330
49
100
AcDbEntity
  8
0
  6
Continuous
 62
     7
100
AcDbLine
 10
-0.30741439416381
 20
-144.7731025458151
 30
0.0
 11
-0.43929597379973
 21
-144.6851814927243
 31
0.0
  0
LINE
  5
9D
330
49
100
AcDbEntity
  8
0
  6
Continuous
 62
     7
100
AcDbLine
 10
-0.50253014652449
 20
-150.0694902993807
 30
0.0
 11
-0.45990917825769
 21
-149.9416273945801
 31
0.0
  0
LINE
  5
9E
330
49
100
AcDbEntity
  8
0
  6
Continuous
 62
     7
100
AcDbLine
 10
-0.31728820999078
 20
-150.1462200218132
 30
0.0
 11
-0.25990917825769
 21
-149.9740829266139
 31
0.0
  0
LINE
  5
9F
330
49
100
AcDbEntity
  8
0
  6
Continuous
 62
     7
100
AcDbLine
 10
0.34009082174235
 20
-149.457855160597
 30
0.0
 11
0.34009082174235
 21
-150.2578551605971
 31
0.0
  0
LINE
  5
A0
330
49
100
AcDbEntity
  8
0
  6
Continuous
 62
     7
100
AcDbLine
 10
-1.65990917825765
 20
-150.2578551605971
 30
0.0
 11
-0.82221974081938
 21
-150.2578551605971
 31
0.0
  0
LINE
  5
A1
330
49
100
AcDbEntity
  8
0
  6
Continuous
 62
     7
100
AcDbLine
 10
-1.65990917825765
 20
-150.457855160597
 30
0.0
 11
-0.79759861569585
 21
-150.457855160597
 31
0.0
  0
LINE
  5
A2
330
49
100
AcDbEntity
  8
0
  6
Continuous
 62
     7
100
AcDbLine
 10
-0.53747549468356
 20
-149.5763293254952
 30
0.0
 11
-0.65096694275775
 21
-149.5006683601124
 31
0.0
  0
LINE
  5
A3
330
49
100
AcDbEntity
  8
0
  6
Continuous
 62
     7
100
AcDbLine
 10
-0.5688514137576
 20
-149.3150419610815
 30
0.0
 11
-0.79759861569585
 21
-149.2578551605971
 31
0.0
  0
LINE
  5
A4
330
49
100
AcDbEntity
  8
0
  6
Continuous
 62
     7
100
AcDbLine
 10
-0.38234286183184
 20
-149.4393809956987
 30
0.0
 11
-0.5688514137576
 21
-149.3150419610815
 31
0.0
  0
LINE
  5
A5
330
49
100
AcDbEntity
  8
0
  6
Continuous
 62
     7
100
AcDbLine
 10
-0.31728820999078
 20
-149.5694902993807
 30
0.0
 11
-0.38234286183184
 21
-149.4393809956987
 31
0.0
  0
LINE
  5
A6
330
49
100
AcDbEntity
  8
0
  6
Continuous
 62
     7
100
AcDbLine
 10
-0.25990917825769
 20
-149.7416273945802
 30
0.0
 11
-0.31728820999078
 21
-149.5694902993807
 31
0.0
  0
LINE
  5
A7
330
49
100
AcDbEntity
  8
0
  6
Continuous
 62
     7
100
AcDbLine
 10
-0.50253014652449
 20
-149.6462200218132
 30
0.0
 11
-0.53747549468356
 21
-149.5763293254952
 31
0.0
  0
LINE
  5
A8
330
49
100
AcDbEntity
  8
0
  6
Continuous
 62
     7
100
AcDbLine
 10
-0.79759861569585
 20
-149.2578551605971
 30
0.0
 11
-1.85990917825765
 21
-149.2578551605971
 31
0.0
  0
LINE
  5
A9
330
49
100
AcDbEntity
  8
0
  6
Continuous
 62
     7
100
AcDbLine
 10
-0.65096694275775
 20
-149.5006683601124
 30
0.0
 11
-0.82221974081938
 21
-149.457855160597
 31
0.0
  0
LINE
  5
AA
330
49
100
AcDbEntity
  8
0
  6
Continuous
 62
     7
100
AcDbLine
 10
-0.82221974081938
 20
-149.457855160597
 30
0.0
 11
-1.65990917825765
 21
-149.457855160597
 31
0.0
  0
LINE
  5
AB
330
49
100
AcDbEntity
  8
0
  6
Continuous
 62
     7
100
AcDbLine
 10
0.34009082174235
 20
-150.457855160597
 30
0.0
 11
1.20240138430415
 21
-150.457855160597
 31
0.0
  0
LINE
  5
AC
330
49
100
AcDbEntity
  8
0
  6
Continuous
 62
     7
100
AcDbLine
 10
0.34009082174235
 20
-150.2578551605971
 30
0.0
 11
1.17778025918062
 21
-150.2578551605971
 31
0.0
  0
LINE
  5
AD
330
49
100
AcDbEntity
  8
0
  6
Continuous
 62
     7
100
AcDbLine
 10
1.17778025918062
 20
-149.457855160597
 30
0.0
 11
0.34009082174235
 21
-149.457855160597
 31
0.0
  0
LINE
  5
AE
330
49
100
AcDbEntity
  8
0
  6
Continuous
 62
     7
100
AcDbLine
 10
-3.47429499017333
 20
-145.7881451859795
 30
0.0
 11
-2.17429499017459
 21
-145.0375898360318
 31
0.0
  0
LINE
  5
AF
330
49
100
AcDbEntity
  8
0
  6
Continuous
 62
     7
100
AcDbLine
 10
-2.37429499017496
 20
-145.3839999975462
 30
0.0
 11
-2.37429499017584
 21
-146.1922903744109
 31
0.0
  0
LINE
  5
B0
330
49
100
AcDbEntity
  8
0
  6
Continuous
 62
     7
100
AcDbLine
 10
-3.58314071698325
 20
-148.1277822148911
 30
0.0
 11
-0.60978683066398
 21
-148.1277822148981
 31
0.0
  0
LINE
  5
B1
330
49
100
AcDbEntity
  8
0
  6
Continuous
 62
     7
100
AcDbLine
 10
-0.7392959737998
 20
-146.1101814927245
 30
0.0
 11
-0.65489556931247
 21
-146.1383149608869
 31
0.0
  0
LINE
  5
B2
330
49
100
AcDbEntity
  8
0
  6
Continuous
 62
     7
100
AcDbLine
 10
-0.82795069685893
 20
-146.2914484290492
 30
0.0
 11
-0.68735110134612
 21
-146.3383149608868
 31
0.0
  0
LINE
  5
B3
330
49
100
AcDbEntity
  8
0
  6
Continuous
 62
     7
100
AcDbLine
 10
-0.95983227649485
 20
-146.2035273759586
 30
0.0
 11
-0.82795069685893
 21
-146.2914484290492
 31
0.0
  0
LINE
  5
B4
330
49
100
AcDbEntity
  8
0
  6
Continuous
 62
     7
100
AcDbLine
 10
-1.05330877684206
 20
-146.1100508756115
 30
0.0
 11
-0.95983227649485
 21
-146.2035273759586
 31
0.0
  0
LINE
  5
B5
330
49
100
AcDbEntity
  8
0
  6
Continuous
 62
     7
100
AcDbLine
 10
-2.17429499017622
 20
-146.5387005359244
 30
0.0
 11
-2.73769244979633
 21
-146.2134228609519
 31
0.0
  0
LINE
  5
B6
330
49
100
AcDbEntity
  8
0
  6
Continuous
 62
     7
100
AcDbLine
 10
-2.17429499017459
 20
-145.0375898360318
 30
0.0
 11
-2.17429499017622
 21
-146.5387005359244
 31
0.0
  0
LINE
  5
B7
330
49
100
AcDbEntity
  8
0
  6
Continuous
 62
     7
100
AcDbLine
 10
-3.58314071698371
 20
-148.3277822148912
 30
0.0
 11
-0.60978683066442
 21
-148.3277822148979
 31
0.0
  0
LINE
  5
B8
330
49
100
AcDbEntity
  8
0
  6
Continuous
 62
     7
100
AcDbLine
 10
-0.21393789381662
 20
-146.1100508756115
 30
0.0
 11
-0.12495597150941
 21
-145.9320870309969
 31
0.0
  0
LINE
  5
B9
330
49
100
AcDbEntity
  8
0
  6
Continuous
 62
     7
100
AcDbLine
 10
-0.12495597150941
 20
-145.0445428907767
 30
0.0
 11
-0.21393789381662
 21
-144.8665790461621
 31
0.0
  0
LINE
  5
BA
330
49
100
AcDbEntity
  8
0
  6
Continuous
 62
     7
100
AcDbLine
 10
-0.08362333532935
 20
-145.2925387078569
 30
0.0
 11
-0.12495597150941
 21
-145.0445428907767
 31
0.0
  0
LINE
  5
BB
330
49
100
AcDbEntity
  8
0
  6
Continuous
 62
     7
100
AcDbLine
 10
-0.08362333532935
 20
-145.6840912139166
 30
0.0
 11
-0.08362333532935
 21
-145.2925387078569
 31
0.0
  0
LINE
  5
BC
330
49
100
AcDbEntity
  8
0
  6
Continuous
 62
     7
100
AcDbLine
 10
-0.12495597150941
 20
-145.9320870309969
 30
0.0
 11
-0.08362333532935
 21
-145.6840912139166
 31
0.0
  0
LINE
  5
BD
330
49
100
AcDbEntity
  8
0
  6
Continuous
 62
     7
100
AcDbLine
 10
-0.68735110134612
 20
-146.3383149608868
 30
0.0
 11
-0.57989556931254
 21
-146.3383149608868
 31
0.0
  0
LINE
  5
BE
330
49
100
AcDbEntity
  8
0
  6
Continuous
 62
     7
100
AcDbLine
 10
-0.57989556931254
 20
-146.3383149608868
 30
0.0
 11
-0.43929597379973
 21
-146.2914484290492
 31
0.0
  0
LINE
  5
BF
330
49
100
AcDbEntity
  8
0
  6
Continuous
 62
     7
100
AcDbLine
 10
-0.30741439416381
 20
-146.2035273759586
 30
0.0
 11
-0.21393789381662
 21
-146.1100508756115
 31
0.0
  0
LINE
  5
C0
330
49
100
AcDbEntity
  8
0
  6
Continuous
 62
     7
100
AcDbLine
 10
-0.43929597379973
 20
-146.2914484290492
 30
0.0
 11
-0.30741439416381
 21
-146.2035273759586
 31
0.0
  0
LINE
  5
C1
330
49
100
AcDbEntity
  8
0
  6
Continuous
 62
     7
100
AcDbLine
 10
-0.37830877684198
 20
-144.9850508756115
 30
0.0
 11
-0.43483227649487
 21
-144.9285273759587
 31
0.0
  0
LINE
  5
C2
330
49
100
AcDbEntity
  8
0
  6
Continuous
 62
     7
100
AcDbLine
 10
-0.43483227649487
 20
-146.048102545815
 30
0.0
 11
-0.37830877684198
 21
-145.9915790461621
 31
0.0
  0
LINE
  5
C3
330
49
100
AcDbEntity
  8
0
  6
Continuous
 62
     7
100
AcDbLine
 10
-0.65489556931247
 20
-146.1383149608869
 30
0.0
 11
-0.61235110134619
 21
-146.1383149608869
 31
0.0
  0
LINE
  5
C4
330
49
100
AcDbEntity
  8
0
  6
Continuous
 62
     7
100
AcDbLine
 10
-0.52795069685887
 20
-146.1101814927245
 30
0.0
 11
-0.43483227649487
 21
-146.048102545815
 31
0.0
  0
LINE
  5
C5
330
49
100
AcDbEntity
  8
0
  6
Continuous
 62
     7
100
AcDbLine
 10
-0.61235110134619
 20
-146.1383149608869
 30
0.0
 11
-0.52795069685887
 21
-146.1101814927245
 31
0.0
  0
LINE
  5
C6
330
49
100
AcDbEntity
  8
0
  6
Continuous
 62
     7
100
AcDbLine
 10
-0.28362333532934
 20
-145.3090912139166
 30
0.0
 11
-0.31729069914933
 21
-145.1070870309968
 31
0.0
  0
LINE
  5
C7
330
49
100
AcDbEntity
  8
0
  6
Continuous
 62
     7
100
AcDbLine
 10
-0.31729069914933
 20
-145.1070870309968
 30
0.0
 11
-0.37830877684198
 21
-144.9850508756115
 31
0.0
  0
LINE
  5
C8
330
49
100
AcDbEntity
  8
0
  6
Continuous
 62
     7
100
AcDbLine
 10
-0.37830877684198
 20
-145.9915790461621
 30
0.0
 11
-0.31729069914933
 21
-145.8695428907768
 31
0.0
  0
LINE
  5
C9
330
49
100
AcDbEntity
  8
0
  6
Continuous
 62
     7
100
AcDbLine
 10
-0.28362333532934
 20
-145.6675387078569
 30
0.0
 11
-0.28362333532934
 21
-145.3090912139166
 31
0.0
  0
LINE
  5
CA
330
49
100
AcDbEntity
  8
0
  6
Continuous
 62
     7
100
AcDbLine
 10
-0.31729069914933
 20
-145.8695428907768
 30
0.0
 11
-0.28362333532934
 21
-145.6675387078569
 31
0.0
  0
LINE
  5
CB
330
49
100
AcDbEntity
  8
0
  6
Continuous
 62
     7
100
AcDbLine
 10
-0.98362333532933
 20
-145.3090912139166
 30
0.0
 11
-0.98362333532933
 21
-145.6675387078569
 31
0.0
  0
LINE
  5
CC
330
49
100
AcDbEntity
  8
0
  6
Continuous
 62
     7
100
AcDbLine
 10
-1.18362333532932
 20
-145.2925387078569
 30
0.0
 11
-1.18362333532932
 21
-145.6840912139166
 31
0.0
  0
LINE
  5
CD
330
49
100
AcDbEntity
  8
0
  6
Continuous
 62
     7
100
AcDbLine
 10
-3.07429499017371
 20
-145.7881451859794
 30
0.0
 11
-2.37429499017496
 21
-145.3839999975462
 31
0.0
  0
LINE
  5
CE
330
49
100
AcDbEntity
  8
0
  6
Continuous
 62
     7
100
AcDbLine
 10
-0.94995597150934
 20
-145.8695428907768
 30
0.0
 11
-0.88893789381669
 21
-145.9915790461621
 31
0.0
  0
LINE
  5
CF
330
49
100
AcDbEntity
  8
0
  6
Continuous
 62
     7
100
AcDbLine
 10
-1.14229069914926
 20
-145.9320870309969
 30
0.0
 11
-1.05330877684206
 21
-146.1100508756115
 31
0.0
  0
LINE
  5
D0
330
49
100
AcDbEntity
  8
0
  6
Continuous
 62
     7
100
AcDbLine
 10
-2.91089753055321
 20
-146.1134228609519
 30
0.0
 11
-3.47429499017333
 21
-145.7881451859795
 31
0.0
  0
LINE
  5
D1
330
49
100
AcDbEntity
  8
0
  6
Continuous
 62
     7
100
AcDbLine
 10
-0.88893789381669
 20
-145.9915790461621
 30
0.0
 11
-0.83241439416379
 21
-146.048102545815
 31
0.0
  0
LINE
  5
D2
330
49
100
AcDbEntity
  8
0
  6
Continuous
 62
     7
100
AcDbLine
 10
-0.83241439416379
 20
-146.048102545815
 30
0.0
 11
-0.7392959737998
 21
-146.1101814927245
 31
0.0
  0
LINE
  5
D3
330
49
100
AcDbEntity
  8
0
  6
Continuous
 62
     7
100
AcDbLine
 10
-0.98362333532933
 20
-145.6675387078569
 30
0.0
 11
-0.94995597150934
 21
-145.8695428907768
 31
0.0
  0
LINE
  5
D4
330
49
100
AcDbEntity
  8
0
  6
Continuous
 62
     7
100
AcDbLine
 10
-1.18362333532932
 20
-145.6840912139166
 30
0.0
 11
-1.14229069914926
 21
-145.9320870309969
 31
0.0
  0
LINE
  5
D5
330
49
100
AcDbEntity
  8
0
  6
Continuous
 62
     7
100
AcDbLine
 10
-2.37429499017584
 20
-146.1922903744109
 30
0.0
 11
-3.07429499017371
 21
-145.7881451859794
 31
0.0
  0
LINE
  5
D6
330
49
100
AcDbEntity
  8
0
  6
Continuous
 62
     7
100
AcDbLine
 10
-0.88893789381669
 20
-144.9850508756115
 30
0.0
 11
-0.94995597150934
 21
-145.1070870309968
 31
0.0
  0
LINE
  5
D7
330
49
100
AcDbEntity
  8
0
  6
Continuous
 62
     7
100
AcDbLine
 10
-1.14229069914926
 20
-145.0445428907767
 30
0.0
 11
-1.18362333532932
 21
-145.2925387078569
 31
0.0
  0
LINE
  5
D8
330
49
100
AcDbEntity
  8
0
  6
Continuous
 62
     7
100
AcDbLine
 10
-1.05330877684206
 20
-144.8665790461621
 30
0.0
 11
-1.14229069914926
 21
-145.0445428907767
 31
0.0
  0
LINE
  5
D9
330
49
100
AcDbEntity
  8
0
  6
Continuous
 62
     7
100
AcDbLine
 10
0.36637666467071
 20
-144.8383149608868
 30
0.0
 11
1.09137666467075
 21
-144.8383149608868
 31
0.0
  0
LINE
  5
DA
330
49
100
AcDbEntity
  8
0
  6
Continuous
 62
     7
100
AcDbLine
 10
-0.83241439416379
 20
-144.9285273759587
 30
0.0
 11
-0.88893789381669
 21
-144.9850508756115
 31
0.0
  0
LINE
  5
DB
330
49
100
AcDbEntity
  8
0
  6
Continuous
 62
     7
100
AcDbLine
 10
-0.7392959737998
 20
-144.8664484290492
 30
0.0
 11
-0.83241439416379
 21
-144.9285273759587
 31
0.0
  0
LINE
  5
DC
330
49
100
AcDbEntity
  8
0
  6
Continuous
 62
     7
100
AcDbLine
 10
-0.65489556931247
 20
-144.8383149608868
 30
0.0
 11
-0.7392959737998
 21
-144.8664484290492
 31
0.0
  0
LINE
  5
DD
330
49
100
AcDbEntity
  8
0
  6
Continuous
 62
     7
100
AcDbLine
 10
-0.61235110134619
 20
-144.8383149608868
 30
0.0
 11
-0.65489556931247
 21
-144.8383149608868
 31
0.0
  0
LINE
  5
DE
330
49
100
AcDbEntity
  8
0
  6
Continuous
 62
     7
100
AcDbLine
 10
-0.52795069685887
 20
-144.8664484290492
 30
0.0
 11
-0.61235110134619
 21
-144.8383149608868
 31
0.0
  0
LINE
  5
DF
330
49
100
AcDbEntity
  8
0
  6
Continuous
 62
     7
100
AcDbLine
 10
-0.43483227649487
 20
-144.9285273759587
 30
0.0
 11
-0.52795069685887
 21
-144.8664484290492
 31
0.0
  0
LINE
  5
E0
330
49
100
AcDbEntity
  8
0
  6
Continuous
 62
     7
100
AcDbLine
 10
-0.94995597150934
 20
-145.1070870309968
 30
0.0
 11
-0.98362333532933
 21
-145.3090912139166
 31
0.0
  0
LINE
  5
E1
330
49
100
AcDbEntity
  8
0
  6
Continuous
 62
     7
100
AcDbLine
 10
1.26836587241794
 20
-143.3503082101031
 30
0.0
 11
0.29301379466287
 21
-141.6609488561634
 31
0.0
  0
LINE
  5
E2
330
49
100
AcDbEntity
  8
0
  6
Continuous
 62
     7
100
AcDbLine
 10
1.8317633320397
 20
-144.5261412350233
 30
0.0
 11
0.53176333204095
 21
-143.7755858850755
 31
0.0
  0
LINE
  5
E3
330
49
100
AcDbEntity
  8
0
  6
Continuous
 62
     7
100
AcDbLine
 10
1.63176333203933
 20
-144.1797310735088
 30
0.0
 11
0.93176333204057
 21
-143.7755858850758
 31
0.0
  0
LINE
  5
E4
330
49
100
AcDbEntity
  8
0
  6
Continuous
 62
     7
100
AcDbLine
 10
2.3125
 20
-139.413713811613
 30
0.0
 11
2.4375
 21
-138.538713811613
 31
0.0
  0
LINE
  5
E5
330
49
100
AcDbEntity
  8
0
  6
Continuous
 62
     7
100
AcDbLine
 10
2.4375
 20
-138.538713811613
 30
0.0
 11
2.125
 21
-138.851213811613
 31
0.0
  0
LINE
  5
E6
330
49
100
AcDbEntity
  8
0
  6
Continuous
 62
     7
100
AcDbLine
 10
2.125
 20
-140.663713811613
 30
0.0
 11
1.8125
 21
-140.788713811613
 31
0.0
  0
LINE
  5
E7
330
49
100
AcDbEntity
  8
0
  6
Continuous
 62
     7
100
AcDbLine
 10
2.125
 20
-138.851213811613
 30
0.0
 11
1.8125
 21
-139.038713811613
 31
0.0
  0
LINE
  5
E8
330
49
100
AcDbEntity
  8
0
  6
Continuous
 62
     7
100
AcDbLine
 10
2.9375
 20
-139.538713811613
 30
0.0
 11
2.8125
 21
-139.851213811613
 31
0.0
  0
LINE
  5
E9
330
49
100
AcDbEntity
  8
0
  6
Continuous
 62
     7
100
AcDbLine
 10
2.8125
 20
-139.851213811613
 30
0.0
 11
2.6875
 21
-140.101213811613
 31
0.0
  0
LINE
  5
EA
330
49
100
AcDbEntity
  8
0
  6
Continuous
 62
     7
100
AcDbLine
 10
2.6875
 20
-140.101213811613
 30
0.0
 11
2.5
 21
-140.351213811613
 31
0.0
  0
LINE
  5
EB
330
49
100
AcDbEntity
  8
0
  6
Continuous
 62
     7
100
AcDbLine
 10
2.5
 20
-140.351213811613
 30
0.0
 11
2.3125
 21
-140.538713811613
 31
0.0
  0
LINE
  5
EC
330
49
100
AcDbEntity
  8
0
  6
Continuous
 62
     7
100
AcDbLine
 10
2.3125
 20
-140.538713811613
 30
0.0
 11
2.125
 21
-140.663713811613
 31
0.0
  0
LINE
  5
ED
330
49
100
AcDbEntity
  8
0
  6
Continuous
 62
     7
100
AcDbLine
 10
1.8125
 20
-140.101213811613
 30
0.0
 11
2.0625
 21
-139.913713811613
 31
0.0
  0
LINE
  5
EE
330
49
100
AcDbEntity
  8
0
  6
Continuous
 62
     7
100
AcDbLine
 10
2.0625
 20
-139.913713811613
 30
0.0
 11
2.1875
 21
-139.726213811613
 31
0.0
  0
LINE
  5
EF
330
49
100
AcDbEntity
  8
0
  6
Continuous
 62
     7
100
AcDbLine
 10
2.1875
 20
-139.726213811613
 30
0.0
 11
2.3125
 21
-139.413713811613
 31
0.0
  0
LINE
  5
F0
330
49
100
AcDbEntity
  8
0
  6
Continuous
 62
     7
100
AcDbLine
 10
0.5625
 20
-140.663713811613
 30
0.0
 11
0.375
 21
-140.538713811613
 31
0.0
  0
LINE
  5
F1
330
49
100
AcDbEntity
  8
0
  6
Continuous
 62
     7
100
AcDbLine
 10
0.5
 20
-139.726213811613
 30
0.0
 11
0.625
 21
-139.913713811613
 31
0.0
  0
LINE
  5
F2
330
49
100
AcDbEntity
  8
0
  6
Continuous
 62
     7
100
AcDbLine
 10
0.5625
 20
-138.913713811613
 30
0.0
 11
0.375
 21
-138.788713811613
 31
0.0
  0
LINE
  5
F3
330
49
100
AcDbEntity
  8
0
  6
Continuous
 62
     7
100
AcDbLine
 10
0.4375
 20
-139.413713811613
 30
0.0
 11
0.5
 21
-139.726213811613
 31
0.0
  0
LINE
  5
F4
330
49
100
AcDbEntity
  8
0
  6
Continuous
 62
     7
100
AcDbLine
 10
1.5625
 20
-140.851213811613
 30
0.0
 11
1.125
 21
-140.851213811613
 31
0.0
  0
LINE
  5
F5
330
49
100
AcDbEntity
  8
0
  6
Continuous
 62
     7
100
AcDbLine
 10
1.125
 20
-140.226213811613
 30
0.0
 11
1.5625
 21
-140.226213811613
 31
0.0
  0
LINE
  5
F6
330
49
100
AcDbEntity
  8
0
  6
Continuous
 62
     7
100
AcDbLine
 10
1.5
 20
-139.101213811613
 30
0.0
 11
1.1875
 21
-139.101213811613
 31
0.0
  0
LINE
  5
F7
330
49
100
AcDbEntity
  8
0
  6
Continuous
 62
     7
100
AcDbLine
 10
0.875
 20
-140.788713811613
 30
0.0
 11
0.5625
 21
-140.663713811613
 31
0.0
  0
LINE
  5
F8
330
49
100
AcDbEntity
  8
0
  6
Continuous
 62
     7
100
AcDbLine
 10
0.625
 20
-139.913713811613
 30
0.0
 11
0.875
 21
-140.101213811613
 31
0.0
  0
LINE
  5
F9
330
49
100
AcDbEntity
  8
0
  6
Continuous
 62
     7
100
AcDbLine
 10
0.875
 20
-139.038713811613
 30
0.0
 11
0.5625
 21
-138.913713811613
 31
0.0
  0
LINE
  5
FA
330
49
100
AcDbEntity
  8
0
  6
Continuous
 62
     7
100
AcDbLine
 10
3.0625
 20
-138.601213811613
 30
0.0
 11
3.0
 21
-139.163713811613
 31
0.0
  0
LINE
  5
FB
330
49
100
AcDbEntity
  8
0
  6
Continuous
 62
     7
100
AcDbLine
 10
4.0625
 20
-138.101213811613
 30
0.0
 11
4.0625
 21
-138.601213811613
 31
0.0
  0
LINE
  5
FC
330
49
100
AcDbEntity
  8
0
  6
Continuous
 62
     7
100
AcDbLine
 10
3.0
 20
-139.163713811613
 30
0.0
 11
2.9375
 21
-139.538713811613
 31
0.0
  0
LINE
  5
FD
330
49
100
AcDbEntity
  8
0
  6
Continuous
 62
     7
100
AcDbLine
 10
3.0625
 20
-138.101213811613
 30
0.0
 11
3.0625
 21
-138.601213811613
 31
0.0
  0
LINE
  5
FE
330
49
100
AcDbEntity
  8
0
  6
Continuous
 62
     7
100
AcDbLine
 10
1.125
 20
-140.851213811613
 30
0.0
 11
0.875
 21
-140.788713811613
 31
0.0
  0
LINE
  5
FF
330
49
100
AcDbEntity
  8
0
  6
Continuous
 62
     7
100
AcDbLine
 10
0.875
 20
-140.101213811613
 30
0.0
 11
1.125
 21
-140.226213811613
 31
0.0
  0
LINE
  5
100
330
49
100
AcDbEntity
  8
0
  6
Continuous
 62
     7
100
AcDbLine
 10
1.1875
 20
-139.101213811613
 30
0.0
 11
0.875
 21
-139.038713811613
 31
0.0
  0
LINE
  5
101
330
49
100
AcDbEntity
  8
0
  6
Continuous
 62
     7
100
AcDbLine
 10
0.93176333204057
 20
-143.7755858850758
 30
0.0
 11
1.63176333203845
 21
-143.3714406966443
 31
0.0
  0
LINE
  5
102
330
49
100
AcDbEntity
  8
0
  6
Continuous
 62
     7
100
AcDbLine
 10
0.16637666467072
 20
-144.6383149608869
 30
0.0
 11
1.09137666467075
 21
-144.6383149608869
 31
0.0
  0
LINE
  5
103
330
49
100
AcDbEntity
  8
0
  6
Continuous
 62
     7
100
AcDbLine
 10
1.26836587241794
 20
-143.3503082101031
 30
0.0
 11
1.83176333203807
 21
-143.0250305351307
 31
0.0
  0
LINE
  5
104
330
49
100
AcDbEntity
  8
0
  6
Continuous
 62
     7
100
AcDbLine
 10
0.53176333204095
 20
-143.7755858850755
 30
0.0
 11
1.09516079166106
 21
-143.4503082101031
 31
0.0
  0
LINE
  5
105
330
49
100
AcDbEntity
  8
0
  6
Continuous
 62
     7
100
AcDbLine
 10
1.8125
 20
-140.788713811613
 30
0.0
 11
1.5625
 21
-140.851213811613
 31
0.0
  0
LINE
  5
106
330
49
100
AcDbEntity
  8
0
  6
Continuous
 62
     7
100
AcDbLine
 10
1.5625
 20
-140.226213811613
 30
0.0
 11
1.8125
 21
-140.101213811613
 31
0.0
  0
LINE
  5
107
330
49
100
AcDbEntity
  8
0
  6
Continuous
 62
     7
100
AcDbLine
 10
1.8125
 20
-139.038713811613
 30
0.0
 11
1.5
 21
-139.101213811613
 31
0.0
  0
LINE
  5
108
330
49
100
AcDbEntity
  8
0
  6
Continuous
 62
     7
100
AcDbLine
 10
1.63176333203845
 20
-143.3714406966443
 30
0.0
 11
1.63176333203933
 21
-144.1797310735088
 31
0.0
  0
LINE
  5
109
330
49
100
AcDbEntity
  8
0
  6
Continuous
 62
     7
100
AcDbLine
 10
1.83176333203807
 20
-143.0250305351307
 30
0.0
 11
1.8317633320397
 21
-144.5261412350233
 31
0.0
  0
LINE
  5
10A
330
49
100
AcDbEntity
  8
0
  6
Continuous
 62
     7
100
AcDbLine
 10
0.375
 20
-140.538713811613
 30
0.0
 11
0.1875
 21
-140.351213811613
 31
0.0
  0
LINE
  5
10B
330
49
100
AcDbEntity
  8
0
  6
Continuous
 62
     7
100
AcDbLine
 10
0.375
 20
-138.788713811613
 30
0.0
 11
0.1875
 21
-138.601213811613
 31
0.0
  0
LINE
  5
10C
330
49
100
AcDbEntity
  8
0
  6
Continuous
 62
     7
100
AcDbLine
 10
4.75
 20
-137.976213811613
 30
0.0
 11
4.75
 21
-138.726213811613
 31
0.0
  0
LINE
  5
10D
330
49
100
AcDbEntity
  8
0
  6
Continuous
 62
     7
100
AcDbLine
 10
2.0625
 20
-138.163713811613
 30
0.0
 11
2.1875
 21
-137.976213811613
 31
0.0
  0
LINE
  5
10E
330
49
100
AcDbEntity
  8
0
  6
Continuous
 62
     7
100
AcDbLine
 10
8.5
 20
-139.351213811613
 30
0.0
 11
8.5
 21
-139.038713811613
 31
0.0
  0
LINE
  5
10F
330
49
100
AcDbEntity
  8
0
  6
Continuous
 62
     7
100
AcDbLine
 10
8.5
 20
-139.726213811613
 30
0.0
 11
8.5
 21
-139.351213811613
 31
0.0
  0
LINE
  5
110
330
49
100
AcDbEntity
  8
0
  6
Continuous
 62
     7
100
AcDbLine
 10
6.25
 20
-140.101213811613
 30
0.0
 11
6.5
 21
-139.913713811613
 31
0.0
  0
LINE
  5
111
330
49
100
AcDbEntity
  8
0
  6
Continuous
 62
     7
100
AcDbLine
 10
5.0625
 20
-139.913713811613
 30
0.0
 11
5.3125
 21
-140.101213811613
 31
0.0
  0
LINE
  5
112
330
49
100
AcDbEntity
  8
0
  6
Continuous
 62
     7
100
AcDbLine
 10
-11.3125
 20
-138.601213811613
 30
0.0
 11
-8.75
 21
-138.601213811613
 31
0.0
  0
LINE
  5
113
330
49
100
AcDbEntity
  8
0
  6
Continuous
 62
     7
100
AcDbLine
 10
-6.375
 20
-140.226213811613
 30
0.0
 11
-3.75
 21
-140.226213811613
 31
0.0
  0
LINE
  5
114
330
49
100
AcDbEntity
  8
0
  6
Continuous
 62
     7
100
AcDbLine
 10
0.0
 20
-140.101213811613
 30
0.0
 11
-0.125
 21
-139.851213811613
 31
0.0
  0
LINE
  5
115
330
49
100
AcDbEntity
  8
0
  6
Continuous
 62
     7
100
AcDbLine
 10
5.3125
 20
-140.101213811613
 30
0.0
 11
5.5625
 21
-140.226213811613
 31
0.0
  0
LINE
  5
116
330
49
100
AcDbEntity
  8
0
  6
Continuous
 62
     7
100
AcDbLine
 10
7.4375
 20
-139.163713811613
 30
0.0
 11
7.5
 21
-138.601213811613
 31
0.0
  0
LINE
  5
117
330
49
100
AcDbEntity
  8
0
  6
Continuous
 62
     7
100
AcDbLine
 10
4.75
 20
-138.726213811613
 30
0.0
 11
4.8125
 21
-139.413713811613
 31
0.0
  0
LINE
  5
118
330
49
100
AcDbEntity
  8
0
  6
Continuous
 62
     7
100
AcDbLine
 10
5.5625
 20
-140.226213811613
 30
0.0
 11
6.0
 21
-140.226213811613
 31
0.0
  0
LINE
  5
119
330
49
100
AcDbEntity
  8
0
  6
Continuous
 62
     7
100
AcDbLine
 10
6.75
 20
-139.413713811613
 30
0.0
 11
6.8125
 21
-138.726213811613
 31
0.0
  0
LINE
  5
11A
330
49
100
AcDbEntity
  8
0
  6
Continuous
 62
     7
100
AcDbLine
 10
6.0
 20
-140.226213811613
 30
0.0
 11
6.25
 21
-140.101213811613
 31
0.0
  0
LINE
  5
11B
330
49
100
AcDbEntity
  8
0
  6
Continuous
 62
     7
100
AcDbLine
 10
-0.1875
 20
-139.413713811613
 30
0.0
 11
0.4375
 21
-139.413713811613
 31
0.0
  0
LINE
  5
11C
330
49
100
AcDbEntity
  8
0
  6
Continuous
 62
     7
100
AcDbLine
 10
6.625
 20
-139.726213811613
 30
0.0
 11
6.75
 21
-139.413713811613
 31
0.0
  0
LINE
  5
11D
330
49
100
AcDbEntity
  8
0
  6
Continuous
 62
     7
100
AcDbLine
 10
-0.1875
 20
-139.538713811613
 30
0.0
 11
-0.1875
 21
-139.413713811613
 31
0.0
  0
LINE
  5
11E
330
49
100
AcDbEntity
  8
0
  6
Continuous
 62
     7
100
AcDbLine
 10
-0.125
 20
-139.851213811613
 30
0.0
 11
-0.1875
 21
-139.538713811613
 31
0.0
  0
LINE
  5
11F
330
49
100
AcDbEntity
  8
0
  6
Continuous
 62
     7
100
AcDbLine
 10
6.5
 20
-139.913713811613
 30
0.0
 11
6.625
 21
-139.726213811613
 31
0.0
  0
LINE
  5
120
330
49
100
AcDbEntity
  8
0
  6
Continuous
 62
     7
100
AcDbLine
 10
4.0625
 20
-138.601213811613
 30
0.0
 11
4.125
 21
-139.163713811613
 31
0.0
  0
LINE
  5
121
330
49
100
AcDbEntity
  8
0
  6
Continuous
 62
     7
100
AcDbLine
 10
7.5
 20
-138.601213811613
 30
0.0
 11
7.5
 21
-138.101213811613
 31
0.0
  0
LINE
  5
122
330
49
100
AcDbEntity
  8
0
  6
Continuous
 62
     7
100
AcDbLine
 10
0.1875
 20
-138.601213811613
 30
0.0
 11
0.0
 21
-138.351213811613
 31
0.0
  0
LINE
  5
123
330
49
100
AcDbEntity
  8
0
  6
Continuous
 62
     7
100
AcDbLine
 10
1.8125
 20
-138.351213811613
 30
0.0
 11
2.0625
 21
-138.163713811613
 31
0.0
  0
LINE
  5
124
330
49
100
AcDbEntity
  8
0
  6
Continuous
 62
     7
100
AcDbLine
 10
1.5
 20
-138.476213811613
 30
0.0
 11
1.8125
 21
-138.351213811613
 31
0.0
  0
LINE
  5
125
330
49
100
AcDbEntity
  8
0
  6
Continuous
 62
     7
100
AcDbLine
 10
1.1875
 20
-138.476213811613
 30
0.0
 11
1.5
 21
-138.476213811613
 31
0.0
  0
LINE
  5
126
330
49
100
AcDbEntity
  8
0
  6
Continuous
 62
     7
100
AcDbLine
 10
0.875
 20
-138.351213811613
 30
0.0
 11
1.1875
 21
-138.476213811613
 31
0.0
  0
LINE
  5
127
330
49
100
AcDbEntity
  8
0
  6
Continuous
 62
     7
100
AcDbLine
 10
0.625
 20
-138.163713811613
 30
0.0
 11
0.875
 21
-138.351213811613
 31
0.0
  0
LINE
  5
128
330
49
100
AcDbEntity
  8
0
  6
Continuous
 62
     7
100
AcDbLine
 10
9.1875
 20
-139.101213811613
 30
0.0
 11
10.625
 21
-139.101213811613
 31
0.0
  0
LINE
  5
129
330
49
100
AcDbEntity
  8
0
  6
Continuous
 62
     7
100
AcDbLine
 10
10.625
 20
-139.726213811613
 30
0.0
 11
8.5
 21
-139.726213811613
 31
0.0
  0
LINE
  5
12A
330
49
100
AcDbEntity
  8
0
  6
Continuous
 62
     7
100
AcDbLine
 10
11.9375
 20
-139.101213811613
 30
0.0
 11
11.9375
 21
-139.726213811613
 31
0.0
  0
LINE
  5
12B
330
49
100
AcDbEntity
  8
0
  6
Continuous
 62
     7
100
AcDbLine
 10
11.9375
 20
-139.726213811613
 30
0.0
 11
11.3125
 21
-139.726213811613
 31
0.0
  0
LINE
  5
12C
330
49
100
AcDbEntity
  8
0
  6
Continuous
 62
     7
100
AcDbLine
 10
11.3125
 20
-139.101213811613
 30
0.0
 11
11.9375
 21
-139.101213811613
 31
0.0
  0
LINE
  5
12D
330
49
100
AcDbEntity
  8
0
  6
Continuous
 62
     7
100
AcDbLine
 10
10.625
 20
-136.976213811613
 30
0.0
 11
9.1875
 21
-139.101213811613
 31
0.0
  0
LINE
  5
12E
330
49
100
AcDbEntity
  8
0
  6
Continuous
 62
     7
100
AcDbLine
 10
8.5
 20
-139.038713811613
 30
0.0
 11
10.625
 21
-135.851213811613
 31
0.0
  0
LINE
  5
12F
330
49
100
AcDbEntity
  8
0
  6
Continuous
 62
     7
100
AcDbLine
 10
-11.3125
 20
-135.851213811613
 30
0.0
 11
-12.0
 21
-135.851213811613
 31
0.0
  0
LINE
  5
130
330
49
100
AcDbEntity
  8
0
  6
Continuous
 62
     7
100
AcDbLine
 10
-8.75
 20
-137.976213811613
 30
0.0
 11
-11.3125
 21
-137.976213811613
 31
0.0
  0
LINE
  5
131
330
49
100
AcDbEntity
  8
0
  6
Continuous
 62
     7
100
AcDbLine
 10
-7.0625
 20
-135.851213811613
 30
0.0
 11
-6.375
 21
-135.851213811613
 31
0.0
  0
LINE
  5
132
330
49
100
AcDbEntity
  8
0
  6
Continuous
 62
     7
100
AcDbLine
 10
-11.3125
 20
-137.976213811613
 30
0.0
 11
-11.3125
 21
-135.851213811613
 31
0.0
  0
LINE
  5
133
330
49
100
AcDbEntity
  8
0
  6
Continuous
 62
     7
100
AcDbLine
 10
4.125
 20
-137.538713811613
 30
0.0
 11
4.0625
 21
-138.101213811613
 31
0.0
  0
LINE
  5
134
330
49
100
AcDbEntity
  8
0
  6
Continuous
 62
     7
100
AcDbLine
 10
7.5
 20
-138.101213811613
 30
0.0
 11
7.4375
 21
-137.538713811613
 31
0.0
  0
LINE
  5
135
330
49
100
AcDbEntity
  8
0
  6
Continuous
 62
     7
100
AcDbLine
 10
3.0
 20
-137.538713811613
 30
0.0
 11
3.0625
 21
-138.101213811613
 31
0.0
  0
LINE
  5
136
330
49
100
AcDbEntity
  8
0
  6
Continuous
 62
     7
100
AcDbLine
 10
2.1875
 20
-137.976213811613
 30
0.0
 11
2.3125
 21
-137.663713811613
 31
0.0
  0
LINE
  5
137
330
49
100
AcDbEntity
  8
0
  6
Continuous
 62
     7
100
AcDbLine
 10
-0.125
 20
-138.101213811613
 30
0.0
 11
-0.25
 21
-137.726213811613
 31
0.0
  0
LINE
  5
138
330
49
100
AcDbEntity
  8
0
  6
Continuous
 62
     7
100
AcDbLine
 10
0.375
 20
-137.663713811613
 30
0.0
 11
0.5
 21
-137.976213811613
 31
0.0
  0
LINE
  5
139
330
49
100
AcDbEntity
  8
0
  6
Continuous
 62
     7
100
AcDbLine
 10
7.125
 20
-136.601213811613
 30
0.0
 11
6.9375
 21
-136.351213811613
 31
0.0
  0
LINE
  5
13A
330
49
100
AcDbEntity
  8
0
  6
Continuous
 62
     7
100
AcDbLine
 10
6.25
 20
-135.913713811613
 30
0.0
 11
6.0
 21
-135.851213811613
 31
0.0
  0
LINE
  5
13B
330
49
100
AcDbEntity
  8
0
  6
Continuous
 62
     7
100
AcDbLine
 10
4.1875
 20
-137.163713811613
 30
0.0
 11
4.125
 21
-137.538713811613
 31
0.0
  0
LINE
  5
13C
330
49
100
AcDbEntity
  8
0
  6
Continuous
 62
     7
100
AcDbLine
 10
7.4375
 20
-137.538713811613
 30
0.0
 11
7.375
 21
-137.163713811613
 31
0.0
  0
LINE
  5
13D
330
49
100
AcDbEntity
  8
0
  6
Continuous
 62
     7
100
AcDbLine
 10
-0.25
 20
-137.726213811613
 30
0.0
 11
-0.25
 21
-137.226213811613
 31
0.0
  0
LINE
  5
13E
330
49
100
AcDbEntity
  8
0
  6
Continuous
 62
     7
100
AcDbLine
 10
2.3125
 20
-137.663713811613
 30
0.0
 11
2.3125
 21
-137.288713811613
 31
0.0
  0
LINE
  5
13F
330
49
100
AcDbEntity
  8
0
  6
Continuous
 62
     7
100
AcDbLine
 10
0.375
 20
-137.288713811613
 30
0.0
 11
0.375
 21
-137.663713811613
 31
0.0
  0
LINE
  5
140
330
49
100
AcDbEntity
  8
0
  6
Continuous
 62
     7
100
AcDbLine
 10
2.9375
 20
-137.163713811613
 30
0.0
 11
3.0
 21
-137.538713811613
 31
0.0
  0
LINE
  5
141
330
49
100
AcDbEntity
  8
0
  6
Continuous
 62
     7
100
AcDbLine
 10
2.0625
 20
-136.788713811613
 30
0.0
 11
1.8125
 21
-136.601213811613
 31
0.0
  0
LINE
  5
142
330
49
100
AcDbEntity
  8
0
  6
Continuous
 62
     7
100
AcDbLine
 10
2.6875
 20
-136.601213811613
 30
0.0
 11
2.8125
 21
-136.851213811613
 31
0.0
  0
LINE
  5
143
330
49
100
AcDbEntity
  8
0
  6
Continuous
 62
     7
100
AcDbLine
 10
5.3125
 20
-136.601213811613
 30
0.0
 11
5.0625
 21
-136.788713811613
 31
0.0
  0
LINE
  5
144
330
49
100
AcDbEntity
  8
0
  6
Continuous
 62
     7
100
AcDbLine
 10
7.25
 20
-136.851213811613
 30
0.0
 11
7.125
 21
-136.601213811613
 31
0.0
  0
LINE
  5
145
330
49
100
AcDbEntity
  8
0
  6
Continuous
 62
     7
100
AcDbLine
 10
4.4375
 20
-136.601213811613
 30
0.0
 11
4.3125
 21
-136.851213811613
 31
0.0
  0
LINE
  5
146
330
49
100
AcDbEntity
  8
0
  6
Continuous
 62
     7
100
AcDbLine
 10
6.5
 20
-136.788713811613
 30
0.0
 11
6.25
 21
-136.601213811613
 31
0.0
  0
LINE
  5
147
330
49
100
AcDbEntity
  8
0
  6
Continuous
 62
     7
100
AcDbLine
 10
-0.125
 20
-136.851213811613
 30
0.0
 11
0.0
 21
-136.601213811613
 31
0.0
  0
LINE
  5
148
330
49
100
AcDbEntity
  8
0
  6
Continuous
 62
     7
100
AcDbLine
 10
0.875
 20
-136.601213811613
 30
0.0
 11
0.625
 21
-136.788713811613
 31
0.0
  0
LINE
  5
149
330
49
100
AcDbEntity
  8
0
  6
Continuous
 62
     7
100
AcDbLine
 10
0.0
 20
-136.601213811613
 30
0.0
 11
0.1875
 21
-136.351213811613
 31
0.0
  0
LINE
  5
14A
330
49
100
AcDbEntity
  8
0
  6
Continuous
 62
     7
100
AcDbLine
 10
1.1875
 20
-136.476213811613
 30
0.0
 11
0.875
 21
-136.601213811613
 31
0.0
  0
LINE
  5
14B
330
49
100
AcDbEntity
  8
0
  6
Continuous
 62
     7
100
AcDbLine
 10
2.5
 20
-136.351213811613
 30
0.0
 11
2.6875
 21
-136.601213811613
 31
0.0
  0
LINE
  5
14C
330
49
100
AcDbEntity
  8
0
  6
Continuous
 62
     7
100
AcDbLine
 10
4.625
 20
-136.351213811613
 30
0.0
 11
4.4375
 21
-136.601213811613
 31
0.0
  0
LINE
  5
14D
330
49
100
AcDbEntity
  8
0
  6
Continuous
 62
     7
100
AcDbLine
 10
4.8125
 20
-136.163713811613
 30
0.0
 11
4.625
 21
-136.351213811613
 31
0.0
  0
LINE
  5
14E
330
49
100
AcDbEntity
  8
0
  6
Continuous
 62
     7
100
AcDbLine
 10
6.9375
 20
-136.351213811613
 30
0.0
 11
6.75
 21
-136.163713811613
 31
0.0
  0
LINE
  5
14F
330
49
100
AcDbEntity
  8
0
  6
Continuous
 62
     7
100
AcDbLine
 10
5.5625
 20
-136.476213811613
 30
0.0
 11
5.3125
 21
-136.601213811613
 31
0.0
  0
LINE
  5
150
330
49
100
AcDbEntity
  8
0
  6
Continuous
 62
     7
100
AcDbLine
 10
6.0
 20
-136.476213811613
 30
0.0
 11
5.5625
 21
-136.476213811613
 31
0.0
  0
LINE
  5
151
330
49
100
AcDbEntity
  8
0
  6
Continuous
 62
     7
100
AcDbLine
 10
6.25
 20
-136.601213811613
 30
0.0
 11
6.0
 21
-136.476213811613
 31
0.0
  0
LINE
  5
152
330
49
100
AcDbEntity
  8
0
  6
Continuous
 62
     7
100
AcDbLine
 10
1.5
 20
-136.476213811613
 30
0.0
 11
1.1875
 21
-136.476213811613
 31
0.0
  0
LINE
  5
153
330
49
100
AcDbEntity
  8
0
  6
Continuous
 62
     7
100
AcDbLine
 10
0.1875
 20
-136.351213811613
 30
0.0
 11
0.375
 21
-136.163713811613
 31
0.0
  0
LINE
  5
154
330
49
100
AcDbEntity
  8
0
  6
Continuous
 62
     7
100
AcDbLine
 10
1.8125
 20
-136.601213811613
 30
0.0
 11
1.5
 21
-136.476213811613
 31
0.0
  0
LINE
  5
155
330
49
100
AcDbEntity
  8
0
  6
Continuous
 62
     7
100
AcDbLine
 10
0.375
 20
-136.163713811613
 30
0.0
 11
0.5625
 21
-136.038713811613
 31
0.0
  0
LINE
  5
156
330
49
100
AcDbEntity
  8
0
  6
Continuous
 62
     7
100
AcDbLine
 10
0.5625
 20
-136.038713811613
 30
0.0
 11
0.875
 21
-135.913713811613
 31
0.0
  0
LINE
  5
157
330
49
100
AcDbEntity
  8
0
  6
Continuous
 62
     7
100
AcDbLine
 10
0.875
 20
-135.913713811613
 30
0.0
 11
1.1875
 21
-135.851213811613
 31
0.0
  0
LINE
  5
158
330
49
100
AcDbEntity
  8
0
  6
Continuous
 62
     7
100
AcDbLine
 10
1.1875
 20
-135.851213811613
 30
0.0
 11
1.5
 21
-135.851213811613
 31
0.0
  0
LINE
  5
159
330
49
100
AcDbEntity
  8
0
  6
Continuous
 62
     7
100
AcDbLine
 10
1.5
 20
-135.851213811613
 30
0.0
 11
1.8125
 21
-135.913713811613
 31
0.0
  0
LINE
  5
15A
330
49
100
AcDbEntity
  8
0
  6
Continuous
 62
     7
100
AcDbLine
 10
1.8125
 20
-135.913713811613
 30
0.0
 11
2.125
 21
-136.038713811613
 31
0.0
  0
LINE
  5
15B
330
49
100
AcDbEntity
  8
0
  6
Continuous
 62
     7
100
AcDbLine
 10
2.125
 20
-136.038713811613
 30
0.0
 11
2.3125
 21
-136.163713811613
 31
0.0
  0
LINE
  5
15C
330
49
100
AcDbEntity
  8
0
  6
Continuous
 62
     7
100
AcDbLine
 10
2.3125
 20
-136.163713811613
 30
0.0
 11
2.5
 21
-136.351213811613
 31
0.0
  0
LINE
  5
15D
330
49
100
AcDbEntity
  8
0
  6
Continuous
 62
     7
100
AcDbLine
 10
5.0
 20
-136.038713811613
 30
0.0
 11
4.8125
 21
-136.163713811613
 31
0.0
  0
LINE
  5
15E
330
49
100
AcDbEntity
  8
0
  6
Continuous
 62
     7
100
AcDbLine
 10
6.75
 20
-136.163713811613
 30
0.0
 11
6.5625
 21
-136.038713811613
 31
0.0
  0
LINE
  5
15F
330
49
100
AcDbEntity
  8
0
  6
Continuous
 62
     7
100
AcDbLine
 10
4.8125
 20
-137.288713811613
 30
0.0
 11
4.75
 21
-137.976213811613
 31
0.0
  0
LINE
  5
160
330
49
100
AcDbEntity
  8
0
  6
Continuous
 62
     7
100
AcDbLine
 10
5.3125
 20
-135.913713811613
 30
0.0
 11
5.0
 21
-136.038713811613
 31
0.0
  0
LINE
  5
161
330
49
100
AcDbEntity
  8
0
  6
Continuous
 62
     7
100
AcDbLine
 10
5.5625
 20
-135.851213811613
 30
0.0
 11
5.3125
 21
-135.913713811613
 31
0.0
  0
LINE
  5
162
330
49
100
AcDbEntity
  8
0
  6
Continuous
 62
     7
100
AcDbLine
 10
6.0
 20
-135.851213811613
 30
0.0
 11
5.5625
 21
-135.851213811613
 31
0.0
  0
LINE
  5
163
330
49
100
AcDbEntity
  8
0
  6
Continuous
 62
     7
100
AcDbLine
 10
4.9375
 20
-136.976213811613
 30
0.0
 11
4.8125
 21
-137.288713811613
 31
0.0
  0
LINE
  5
164
330
49
100
AcDbEntity
  8
0
  6
Continuous
 62
     7
100
AcDbLine
 10
5.0625
 20
-136.788713811613
 30
0.0
 11
4.9375
 21
-136.976213811613
 31
0.0
  0
LINE
  5
165
330
49
100
AcDbEntity
  8
0
  6
Continuous
 62
     7
100
AcDbLine
 10
6.8125
 20
-137.976213811613
 30
0.0
 11
6.75
 21
-137.288713811613
 31
0.0
  0
LINE
  5
166
330
49
100
AcDbEntity
  8
0
  6
Continuous
 62
     7
100
AcDbLine
 10
6.75
 20
-137.288713811613
 30
0.0
 11
6.625
 21
-136.976213811613
 31
0.0
  0
LINE
  5
167
330
49
100
AcDbEntity
  8
0
  6
Continuous
 62
     7
100
AcDbLine
 10
6.625
 20
-136.976213811613
 30
0.0
 11
6.5
 21
-136.788713811613
 31
0.0
  0
LINE
  5
168
330
49
100
AcDbEntity
  8
0
  6
Continuous
 62
     7
100
AcDbLine
 10
6.5625
 20
-136.038713811613
 30
0.0
 11
6.25
 21
-135.913713811613
 31
0.0
  0
LINE
  5
169
330
49
100
AcDbEntity
  8
0
  6
Continuous
 62
     7
100
AcDbLine
 10
-0.25
 20
-137.226213811613
 30
0.0
 11
-0.125
 21
-136.851213811613
 31
0.0
  0
LINE
  5
16A
330
49
100
AcDbEntity
  8
0
  6
Continuous
 62
     7
100
AcDbLine
 10
0.5
 20
-136.976213811613
 30
0.0
 11
0.375
 21
-137.288713811613
 31
0.0
  0
LINE
  5
16B
330
49
100
AcDbEntity
  8
0
  6
Continuous
 62
     7
100
AcDbLine
 10
2.3125
 20
-137.288713811613
 30
0.0
 11
2.1875
 21
-136.976213811613
 31
0.0
  0
LINE
  5
16C
330
49
100
AcDbEntity
  8
0
  6
Continuous
 62
     7
100
AcDbLine
 10
2.1875
 20
-136.976213811613
 30
0.0
 11
2.0625
 21
-136.788713811613
 31
0.0
  0
LINE
  5
16D
330
49
100
AcDbEntity
  8
0
  6
Continuous
 62
     7
100
AcDbLine
 10
2.8125
 20
-136.851213811613
 30
0.0
 11
2.9375
 21
-137.163713811613
 31
0.0
  0
LINE
  5
16E
330
49
100
AcDbEntity
  8
0
  6
Continuous
 62
     7
100
AcDbLine
 10
4.3125
 20
-136.851213811613
 30
0.0
 11
4.1875
 21
-137.163713811613
 31
0.0
  0
LINE
  5
16F
330
49
100
AcDbEntity
  8
0
  6
Continuous
 62
     7
100
AcDbLine
 10
7.375
 20
-137.163713811613
 30
0.0
 11
7.25
 21
-136.851213811613
 31
0.0
  0
LINE
  5
170
330
49
100
AcDbEntity
  8
0
  6
Continuous
 62
     7
100
AcDbLine
 10
0.625
 20
-136.788713811613
 30
0.0
 11
0.5
 21
-136.976213811613
 31
0.0
  0
LINE
  5
171
330
49
100
AcDbEntity
  8
0
  6
Continuous
 62
     7
100
AcDbLine
 10
10.625
 20
-135.851213811613
 30
0.0
 11
11.3125
 21
-135.851213811613
 31
0.0
  0
LINE
  5
172
330
49
100
AcDbEntity
  8
0
  6
Continuous
 62
     7
100
AcDbLine
 10
11.3125
 20
-135.851213811613
 30
0.0
 11
11.3125
 21
-139.101213811613
 31
0.0
  0
LINE
  5
173
330
49
100
AcDbEntity
  8
0
  6
Continuous
 62
     7
100
AcDbLine
 10
10.625
 20
-139.101213811613
 30
0.0
 11
10.625
 21
-136.976213811613
 31
0.0
  0
LINE
  5
174
330
49
100
AcDbEntity
  8
0
  6
Continuous
 62
     7
100
AcDbLine
 10
11.3125
 20
-139.726213811613
 30
0.0
 11
11.3125
 21
-140.851213811613
 31
0.0
  0
LINE
  5
175
330
49
100
AcDbEntity
  8
0
  6
Continuous
 62
     7
100
AcDbLine
 10
10.625
 20
-140.851213811613
 30
0.0
 11
10.625
 21
-139.726213811613
 31
0.0
  0
LINE
  5
176
330
49
100
AcDbEntity
  8
0
  6
Continuous
 62
     7
100
AcDbLine
 10
0.1875
 20
-140.351213811613
 30
0.0
 11
0.0
 21
-140.101213811613
 31
0.0
  0
LINE
  5
177
330
49
100
AcDbEntity
  8
0
  6
Continuous
 62
     7
100
AcDbLine
 10
4.4375
 20
-140.101213811613
 30
0.0
 11
4.625
 21
-140.351213811613
 31
0.0
  0
LINE
  5
178
330
49
100
AcDbEntity
  8
0
  6
Continuous
 62
     7
100
AcDbLine
 10
5.0
 20
-140.663713811613
 30
0.0
 11
5.3125
 21
-140.788713811613
 31
0.0
  0
LINE
  5
179
330
49
100
AcDbEntity
  8
0
  6
Continuous
 62
     7
100
AcDbLine
 10
4.625
 20
-140.351213811613
 30
0.0
 11
4.8125
 21
-140.538713811613
 31
0.0
  0
LINE
  5
17A
330
49
100
AcDbEntity
  8
0
  6
Continuous
 62
     7
100
AcDbLine
 10
6.9375
 20
-140.351213811613
 30
0.0
 11
7.125
 21
-140.101213811613
 31
0.0
  0
LINE
  5
17B
330
49
100
AcDbEntity
  8
0
  6
Continuous
 62
     7
100
AcDbLine
 10
6.75
 20
-140.538713811613
 30
0.0
 11
6.9375
 21
-140.351213811613
 31
0.0
  0
LINE
  5
17C
330
49
100
AcDbEntity
  8
0
  6
Continuous
 62
     7
100
AcDbLine
 10
6.5625
 20
-140.663713811613
 30
0.0
 11
6.75
 21
-140.538713811613
 31
0.0
  0
LINE
  5
17D
330
49
100
AcDbEntity
  8
0
  6
Continuous
 62
     7
100
AcDbLine
 10
6.25
 20
-140.788713811613
 30
0.0
 11
6.5625
 21
-140.663713811613
 31
0.0
  0
LINE
  5
17E
330
49
100
AcDbEntity
  8
0
  6
Continuous
 62
     7
100
AcDbLine
 10
-3.75
 20
-140.851213811613
 30
0.0
 11
-7.0625
 21
-140.851213811613
 31
0.0
  0
LINE
  5
17F
330
49
100
AcDbEntity
  8
0
  6
Continuous
 62
     7
100
AcDbLine
 10
5.3125
 20
-140.788713811613
 30
0.0
 11
5.5625
 21
-140.851213811613
 31
0.0
  0
LINE
  5
180
330
49
100
AcDbEntity
  8
0
  6
Continuous
 62
     7
100
AcDbLine
 10
5.5625
 20
-140.851213811613
 30
0.0
 11
6.0
 21
-140.851213811613
 31
0.0
  0
LINE
  5
181
330
49
100
AcDbEntity
  8
0
  6
Continuous
 62
     7
100
AcDbLine
 10
6.0
 20
-140.851213811613
 30
0.0
 11
6.25
 21
-140.788713811613
 31
0.0
  0
LINE
  5
182
330
49
100
AcDbEntity
  8
0
  6
Continuous
 62
     7
100
AcDbLine
 10
4.8125
 20
-140.538713811613
 30
0.0
 11
5.0
 21
-140.663713811613
 31
0.0
  0
LINE
  5
183
330
49
100
AcDbEntity
  8
0
  6
Continuous
 62
     7
100
AcDbLine
 10
4.3125
 20
-139.851213811613
 30
0.0
 11
4.4375
 21
-140.101213811613
 31
0.0
  0
LINE
  5
184
330
49
100
AcDbEntity
  8
0
  6
Continuous
 62
     7
100
AcDbLine
 10
7.125
 20
-140.101213811613
 30
0.0
 11
7.25
 21
-139.851213811613
 31
0.0
  0
LINE
  5
185
330
49
100
AcDbEntity
  8
0
  6
Continuous
 62
     7
100
AcDbLine
 10
4.1875
 20
-139.538713811613
 30
0.0
 11
4.3125
 21
-139.851213811613
 31
0.0
  0
LINE
  5
186
330
49
100
AcDbEntity
  8
0
  6
Continuous
 62
     7
100
AcDbLine
 10
7.25
 20
-139.851213811613
 30
0.0
 11
7.375
 21
-139.538713811613
 31
0.0
  0
LINE
  5
187
330
49
100
AcDbEntity
  8
0
  6
Continuous
 62
     7
100
AcDbLine
 10
4.9375
 20
-139.726213811613
 30
0.0
 11
5.0625
 21
-139.913713811613
 31
0.0
  0
LINE
  5
188
330
49
100
AcDbEntity
  8
0
  6
Continuous
 62
     7
100
AcDbLine
 10
4.125
 20
-139.163713811613
 30
0.0
 11
4.1875
 21
-139.538713811613
 31
0.0
  0
LINE
  5
189
330
49
100
AcDbEntity
  8
0
  6
Continuous
 62
     7
100
AcDbLine
 10
7.375
 20
-139.538713811613
 30
0.0
 11
7.4375
 21
-139.163713811613
 31
0.0
  0
LINE
  5
18A
330
49
100
AcDbEntity
  8
0
  6
Continuous
 62
     7
100
AcDbLine
 10
4.8125
 20
-139.413713811613
 30
0.0
 11
4.9375
 21
-139.726213811613
 31
0.0
  0
LINE
  5
18B
330
49
100
AcDbEntity
  8
0
  6
Continuous
 62
     7
100
AcDbLine
 10
6.8125
 20
-138.726213811613
 30
0.0
 11
6.8125
 21
-137.976213811613
 31
0.0
  0
LINE
  5
18C
330
49
100
AcDbEntity
  8
0
  6
Continuous
 62
     7
100
AcDbLine
 10
0.0
 20
-138.351213811613
 30
0.0
 11
-0.125
 21
-138.101213811613
 31
0.0
  0
LINE
  5
18D
330
49
100
AcDbEntity
  8
0
  6
Continuous
 62
     7
100
AcDbLine
 10
0.5
 20
-137.976213811613
 30
0.0
 11
0.625
 21
-138.163713811613
 31
0.0
  0
LINE
  5
18E
330
49
100
AcDbEntity
  8
0
  6
Continuous
 62
     7
100
AcDbLine
 10
11.3125
 20
-140.851213811613
 30
0.0
 11
10.625
 21
-140.851213811613
 31
0.0
  0
LINE
  5
18F
330
49
100
AcDbEntity
  8
0
  6
Continuous
 62
     7
100
AcDbLine
 10
-6.375
 20
-135.851213811613
 30
0.0
 11
-6.375
 21
-140.226213811613
 31
0.0
  0
LINE
  5
190
330
49
100
AcDbEntity
  8
0
  6
Continuous
 62
     7
100
AcDbLine
 10
0.67166165213676
 20
-148.2512138116072
 30
0.0
 11
1.3716616521364
 21
-147.8470686231756
 31
0.0
  0
LINE
  5
191
330
49
100
AcDbEntity
  8
0
  6
Continuous
 62
     7
100
AcDbLine
 10
1.57166165213639
 20
-149.001769161552
 30
0.0
 11
0.27166165213602
 21
-148.2512138116072
 31
0.0
  0
LINE
  5
192
330
49
100
AcDbEntity
  8
0
  6
Continuous
 62
     7
100
AcDbLine
 10
0.27166165213602
 20
-148.2512138116072
 30
0.0
 11
1.57166165213639
 21
-147.5006584616623
 31
0.0
  0
LINE
  5
193
330
49
100
AcDbEntity
  8
0
  6
Continuous
 62
     7
100
AcDbLine
 10
3.65226961821357
 20
-147.926213811607
 30
0.0
 11
2.16559267505984
 21
-145.3512138116099
 31
0.0
  0
LINE
  5
194
330
49
100
AcDbEntity
  8
0
  6
Continuous
 62
     7
100
AcDbLine
 10
3.82547469897069
 20
-147.8262138116073
 30
0.0
 11
2.33879775581697
 21
-145.2512138116102
 31
0.0
  0
LINE
  5
195
330
49
100
AcDbEntity
  8
0
  6
Continuous
 62
     7
100
AcDbLine
 10
1.21917306677881
 20
-145.4371900067577
 30
0.0
 11
1.06567787212752
 21
-145.2836948121063
 31
0.0
  0
LINE
  5
196
330
49
100
AcDbEntity
  8
0
  6
Continuous
 62
     7
100
AcDbLine
 10
1.12598769018001
 20
-146.1979259863961
 30
0.0
 11
1.22168986418609
 21
-146.0543727253868
 31
0.0
  0
LINE
  5
197
330
49
100
AcDbEntity
  8
0
  6
Continuous
 62
     7
100
AcDbLine
 10
0.98570402620021
 20
-146.2914484290492
 30
0.0
 11
1.12598769018001
 21
-146.1979259863961
 31
0.0
  0
LINE
  5
198
330
49
100
AcDbEntity
  8
0
  6
Continuous
 62
     7
100
AcDbLine
 10
1.06567787212752
 20
-145.2836948121063
 30
0.0
 11
0.83877861602998
 21
-145.2383149608868
 31
0.0
  0
LINE
  5
199
330
49
100
AcDbEntity
  8
0
  6
Continuous
 62
     7
100
AcDbLine
 10
0.81264889865386
 20
-146.1383149608869
 30
0.0
 11
0.8970493031411
 21
-146.1101814927245
 31
0.0
  0
LINE
  5
19A
330
49
100
AcDbEntity
  8
0
  6
Continuous
 62
     7
100
AcDbLine
 10
0.8970493031411
 20
-146.1101814927245
 30
0.0
 11
0.98176563916144
 21
-146.0537039353775
 31
0.0
  0
LINE
  5
19B
330
49
100
AcDbEntity
  8
0
  6
Continuous
 62
     7
100
AcDbLine
 10
0.98176563916144
 20
-146.0537039353775
 30
0.0
 11
1.03606346515522
 21
-145.9722571963868
 31
0.0
  0
LINE
  5
19C
330
49
100
AcDbEntity
  8
0
  6
Continuous
 62
     7
100
AcDbLine
 10
1.03606346515522
 20
-145.9722571963868
 30
0.0
 11
1.06637666467068
 21
-145.851004398325
 31
0.0
  0
LINE
  5
19D
330
49
100
AcDbEntity
  8
0
  6
Continuous
 62
     7
100
AcDbLine
 10
1.06637666467068
 20
-145.851004398325
 30
0.0
 11
1.06637666467068
 21
-145.6506255234485
 31
0.0
  0
LINE
  5
19E
330
49
100
AcDbEntity
  8
0
  6
Continuous
 62
     7
100
AcDbLine
 10
1.06637666467068
 20
-145.6506255234485
 30
0.0
 11
1.0385802625625
 21
-145.5394399150159
 31
0.0
  0
LINE
  5
19F
330
49
100
AcDbEntity
  8
0
  6
Continuous
 62
     7
100
AcDbLine
 10
1.0385802625625
 20
-145.5394399150159
 30
0.0
 11
0.96707545721388
 21
-145.4679351096673
 31
0.0
  0
LINE
  5
1A0
330
49
100
AcDbEntity
  8
0
  6
Continuous
 62
     7
100
AcDbLine
 10
0.96707545721388
 20
-145.4679351096673
 30
0.0
 11
0.81897471331142
 21
-145.4383149608868
 31
0.0
  0
LINE
  5
1A1
330
49
100
AcDbEntity
  8
0
  6
Continuous
 62
     7
100
AcDbLine
 10
1.09137666467075
 20
-144.8383149608868
 30
0.0
 11
1.09137666467075
 21
-144.6383149608869
 31
0.0
  0
LINE
  5
1A2
330
49
100
AcDbEntity
  8
0
  6
Continuous
 62
     7
100
AcDbLine
 10
0.84510443068754
 20
-146.3383149608868
 30
0.0
 11
0.98570402620021
 21
-146.2914484290492
 31
0.0
  0
LINE
  5
1A3
330
49
100
AcDbEntity
  8
0
  6
Continuous
 62
     7
100
AcDbLine
 10
1.26637666467067
 20
-145.8756255234486
 30
0.0
 11
1.26637666467067
 21
-145.626004398325
 31
0.0
  0
LINE
  5
1A4
330
49
100
AcDbEntity
  8
0
  6
Continuous
 62
     7
100
AcDbLine
 10
1.22168986418609
 20
-146.0543727253868
 30
0.0
 11
1.26637666467067
 21
-145.8756255234486
 31
0.0
  0
LINE
  5
1A5
330
49
100
AcDbEntity
  8
0
  6
Continuous
 62
     7
100
AcDbLine
 10
1.26637666467067
 20
-145.626004398325
 30
0.0
 11
1.21917306677881
 21
-145.4371900067577
 31
0.0
  0
LINE
  5
1A6
330
49
100
AcDbEntity
  8
0
  6
Continuous
 62
     7
100
AcDbLine
 10
2.33879775581697
 20
-145.2512138116102
 30
0.0
 11
2.16559267505984
 21
-145.3512138116099
 31
0.0
  0
LINE
  5
1A7
330
49
100
AcDbEntity
  8
0
  6
Continuous
 62
     7
100
AcDbLine
 10
1.57166165213639
 20
-148.1512138116073
 30
0.0
 11
3.52236580764656
 21
-148.1512138116073
 31
0.0
  0
LINE
  5
1A8
330
49
100
AcDbEntity
  8
0
  6
Continuous
 62
     7
100
AcDbLine
 10
1.57166165213639
 20
-147.5006584616623
 30
0.0
 11
1.57166165213639
 21
-148.1512138116073
 31
0.0
  0
LINE
  5
1A9
330
49
100
AcDbEntity
  8
0
  6
Continuous
 62
     7
100
AcDbLine
 10
1.57166165213639
 20
-148.3512138116071
 30
0.0
 11
1.57166165213639
 21
-149.001769161552
 31
0.0
  0
LINE
  5
1AA
330
49
100
AcDbEntity
  8
0
  6
Continuous
 62
     7
100
AcDbLine
 10
1.57166165213639
 20
-148.3512138116071
 30
0.0
 11
3.52236580764656
 21
-148.3512138116071
 31
0.0
  0
LINE
  5
1AB
330
49
100
AcDbEntity
  8
0
  6
Continuous
 62
     7
100
AcDbLine
 10
1.3716616521364
 20
-148.6553590000386
 30
0.0
 11
0.67166165213676
 21
-148.2512138116072
 31
0.0
  0
LINE
  5
1AC
330
49
100
AcDbEntity
  8
0
  6
Continuous
 62
     7
100
AcDbLine
 10
1.3716616521364
 20
-147.8470686231756
 30
0.0
 11
1.3716616521364
 21
-148.6553590000386
 31
0.0
  0
LINE
  5
1AD
330
49
100
AcDbEntity
  8
0
  6
Continuous
 62
     7
100
AcDbLine
 10
1.34903305724225
 20
-150.2150419610815
 30
0.0
 11
1.46252450531644
 21
-150.1393809956987
 31
0.0
  0
LINE
  5
1AE
330
49
100
AcDbEntity
  8
0
  6
Continuous
 62
     7
100
AcDbLine
 10
1.46252450531644
 20
-150.1393809956987
 30
0.0
 11
1.49746985347551
 21
-150.0694902993807
 31
0.0
  0
LINE
  5
1AF
330
49
100
AcDbEntity
  8
0
  6
Continuous
 62
     7
100
AcDbLine
 10
1.61765713816816
 20
-150.2763293254952
 30
0.0
 11
1.68271179000922
 21
-150.1462200218132
 31
0.0
  0
LINE
  5
1B0
330
49
100
AcDbEntity
  8
0
  6
Continuous
 62
     7
100
AcDbLine
 10
1.49746985347551
 20
-150.0694902993807
 30
0.0
 11
1.54009082174233
 21
-149.9416273945801
 31
0.0
  0
LINE
  5
1B1
330
49
100
AcDbEntity
  8
0
  6
Continuous
 62
     7
100
AcDbLine
 10
1.68271179000922
 20
-150.1462200218132
 30
0.0
 11
1.74009082174231
 21
-149.9740829266139
 31
0.0
  0
LINE
  5
1B2
330
49
100
AcDbEntity
  8
0
  6
Continuous
 62
     7
100
AcDbLine
 10
1.54009082174233
 20
-149.9416273945801
 30
0.0
 11
1.54009082174233
 21
-149.7740829266138
 31
0.0
  0
LINE
  5
1B3
330
49
100
AcDbEntity
  8
0
  6
Continuous
 62
     7
100
AcDbLine
 10
1.74009082174231
 20
-149.9740829266139
 30
0.0
 11
1.74009082174231
 21
-149.7416273945802
 31
0.0
  0
LINE
  5
1B4
330
49
100
AcDbEntity
  8
0
  6
Continuous
 62
     7
100
AcDbLine
 10
1.54009082174233
 20
-149.7740829266138
 30
0.0
 11
1.49746985347551
 21
-149.6462200218132
 31
0.0
  0
LINE
  5
1B5
330
49
100
AcDbEntity
  8
0
  6
Continuous
 62
     7
100
AcDbLine
 10
1.74009082174231
 20
-149.7416273945802
 30
0.0
 11
1.68271179000922
 21
-149.5694902993807
 31
0.0
  0
LINE
  5
1B6
330
49
100
AcDbEntity
  8
0
  6
Continuous
 62
     7
100
AcDbLine
 10
1.49746985347551
 20
-149.6462200218132
 30
0.0
 11
1.46252450531644
 21
-149.5763293254952
 31
0.0
  0
LINE
  5
1B7
330
49
100
AcDbEntity
  8
0
  6
Continuous
 62
     7
100
AcDbLine
 10
1.68271179000922
 20
-149.5694902993807
 30
0.0
 11
1.61765713816816
 21
-149.4393809956987
 31
0.0
  0
LINE
  5
1B8
330
49
100
AcDbEntity
  8
0
  6
Continuous
 62
     7
100
AcDbLine
 10
1.43114858624239
 20
-150.4006683601124
 30
0.0
 11
1.61765713816816
 21
-150.2763293254952
 31
0.0
  0
LINE
  5
1B9
330
49
100
AcDbEntity
  8
0
  6
Continuous
 62
     7
100
AcDbLine
 10
1.17778025918062
 20
-150.2578551605971
 30
0.0
 11
1.34903305724225
 21
-150.2150419610815
 31
0.0
  0
LINE
  5
1BA
330
49
100
AcDbEntity
  8
0
  6
Continuous
 62
     7
100
AcDbLine
 10
1.20240138430415
 20
-150.457855160597
 30
0.0
 11
1.43114858624239
 21
-150.4006683601124
 31
0.0
  0
LINE
  5
1BB
330
49
100
AcDbEntity
  8
0
  6
Continuous
 62
     7
100
AcDbLine
 10
1.61765713816816
 20
-149.4393809956987
 30
0.0
 11
1.43114858624239
 21
-149.3150419610815
 31
0.0
  0
LINE
  5
1BC
330
49
100
AcDbEntity
  8
0
  6
Continuous
 62
     7
100
AcDbLine
 10
1.43114858624239
 20
-149.3150419610815
 30
0.0
 11
1.20240138430415
 21
-149.2578551605971
 31
0.0
  0
LINE
  5
1BD
330
49
100
AcDbEntity
  8
0
  6
Continuous
 62
     7
100
AcDbLine
 10
1.46252450531644
 20
-149.5763293254952
 30
0.0
 11
1.34903305724225
 21
-149.5006683601124
 31
0.0
  0
LINE
  5
1BE
330
49
100
AcDbEntity
  8
0
  6
Continuous
 62
     7
100
AcDbLine
 10
1.34903305724225
 20
-149.5006683601124
 30
0.0
 11
1.17778025918062
 21
-149.457855160597
 31
0.0
  0
LINE
  5
1BF
330
49
100
AcDbEntity
  8
1
  6
DOT_CENTER
 62
     2
100
AcDbLine
 10
31.90000000000005
 20
-138.351213811613
 30
0.0
 11
-31.90000000000005
 21
-138.351213811613
 31
0.0
  0
LINE
  5
1C0
330
49
100
AcDbEntity
  8
1
  6
DOT_CENTER
 62
     2
100
AcDbLine
 10
0.0
 20
-106.451213811613
 30
0.0
 11
0.0
 21
-170.2512138116131
 31
0.0
  0
ARC
  5
1C1
330
49
100
AcDbEntity
  8
0
  6
Continuous
 62
     7
100
AcDbCircle
 10
-3.58314071698375
 20
-147.9777822148917
 30
0.0
 40
0.3500000000000626
100
AcDbArc
 50
149.9999999999877
 51
-89.99999999999295
  0
ARC
  5
1C2
330
49
100
AcDbEntity
  8
0
  6
Continuous
 62
     7
100
AcDbCircle
 10
-3.58314071698375
 20
-147.9777822148917
 30
0.0
 40
0.1500000000000114
100
AcDbArc
 50
149.999999999995
 51
-89.99999999981019
  0
ARC
  5
1C3
330
49
100
AcDbEntity
  8
0
  6
Continuous
 62
     7
100
AcDbCircle
 10
-0.01009509666169
 20
-141.8359488561634
 30
0.0
 40
0.3500000000000073
100
AcDbArc
 50
30.00000000000146
 51
150.0000000000115
  0
ARC
  5
1C4
330
49
100
AcDbEntity
  8
0
  6
Continuous
 62
     7
100
AcDbCircle
 10
-0.01009509666169
 20
-141.8359488561634
 30
0.0
 40
0.150000000000011
100
AcDbArc
 50
30.00000000000511
 51
150.0000000002001
  0
ARC
  5
1C5
330
49
100
AcDbEntity
  8
0
  6
Continuous
 62
     7
100
AcDbCircle
 10
3.52236580764656
 20
-148.0012138116072
 30
0.0
 40
0.1500000000001194
100
AcDbArc
 50
-90.0
 51
30.00000000018899
  0
ARC
  5
1C6
330
49
100
AcDbEntity
  8
0
  6
Continuous
 62
     7
100
AcDbCircle
 10
3.52236580764656
 20
-148.0012138116072
 30
0.0
 40
0.3499999999999091
100
AcDbArc
 50
-90.0
 51
30.00000000002016
  0
CIRCLE
  5
1C7
330
49
100
AcDbEntity
  8
0
  6
Continuous
 62
     7
100
AcDbCircle
 10
0.0
 20
-138.351213811613
 30
0.0
 40
29.00000000000004
  0
CIRCLE
  5
1C8
330
49
100
AcDbEntity
  8
0
  6
Continuous
 62
     7
100
AcDbCircle
 10
0.0
 20
-138.351213811613
 30
0.0
 40
28.29999999999906
  0
CIRCLE
  5
1C9
330
49
100
AcDbEntity
  8
0
  6
Continuous
 62
     3
100
AcDbCircle
 10
0.0
 20
-138.351213811613
 30
0.0
 40
13.29999999999902
  0
ENDBLK
  5
4B
330
49
100
AcDbEntity
  8
0
100
AcDbBlockEnd
  0
BLOCK
  5
50
330
4C
100
AcDbEntity
  8
0
100
AcDbBlockBegin
  2
BgrHL904
 70
     0
 71
     0
 10
-29.00000000000001
 20
-167.351213811613
 30
0.0
  3
BgrHL904
  1

  0
INSERT
  5
4D
330
4C
100
AcDbEntity
  8
0
100
AcDbBlockReference
  2
HL904Körper__1
 10
-29.00000000000001
 20
-167.351213811613
 30
0.0
  0
INSERT
  5
4E
330
4C
100
AcDbEntity
  8
0
100
AcDbBlockReference
  2
HL904Halteplatte
 10
8.5
 20
-139.351213811613
 30
0.0
  0
INSERT
  5
4F
330
4C
100
AcDbEntity
  8
0
100
AcDbBlockReference
  2
HL904Deckel__2
 10
-29.00000000000001
 20
-167.351213811613
 30
0.0
  0
ENDBLK
  5
51
330
4C
100
AcDbEntity
  8
0
100
AcDbBlockEnd
  0
BLOCK
  5
54
330
52
100
AcDbEntity
  8
0
100
AcDbBlockBegin
  2
Drfsicht1
 70
     0
 71
     0
 10
0.0
 20
-138.3299487817058
 30
0.0
  3
Drfsicht1
  1

  0
INSERT
  5
53
330
52
100
AcDbEntity
  8
0
100
AcDbBlockReference
  2
BgrHL904
 10
-29.00000000000001
 20
-167.351213811613
 30
0.0
  0
ENDBLK
  5
55
330
52
100
AcDbEntity
  8
0
100
AcDbBlockEnd
  0
BLOCK
  5
57
330
56
100
AcDbEntity
  8
0
100
AcDbBlockBegin
  2
HL_904_Übergangsrohr_Artikel
 70
     0
 71
     0
 10
-35.78377361346793
 20
40.26748541756172
 30
0.0
  3
HL_904_Übergangsrohr_Artikel
  1

  0
POINT
  5
1CA
330
56
100
AcDbEntity
  8
1
 62
     3
 60
     1
100
AcDbPoint
 10
25.0
 20
-53.50003326106162
 30
0.0
  0
POINT
  5
1CB
330
56
100
AcDbEntity
  8
1
 62
     3
 60
     1
100
AcDbPoint
 10
-20.0
 20
1.20963847657217
 30
0.0
  0
POINT
  5
1CC
330
56
100
AcDbEntity
  8
1
 62
     3
 60
     1
100
AcDbPoint
 10
-20.0
 20
-2.79036152342783
 30
0.0
  0
POINT
  5
1CD
330
56
100
AcDbEntity
  8
1
 62
     3
 60
     1
100
AcDbPoint
 10
20.0
 20
1.20963847657217
 30
0.0
  0
POINT
  5
1CE
330
56
100
AcDbEntity
  8
1
 62
     3
 60
     1
100
AcDbPoint
 10
20.0
 20
-2.79036152342783
 30
0.0
  0
LINE
  5
1CF
330
56
100
AcDbEntity
  8
1
  6
PHANTOM
 62
     2
100
AcDbLine
 10
0.0
 20
-58.44214723225119
 30
0.0
 11
0.0
 21
2.8773151179203
 31
0.0
  0
LINE
  5
1D0
330
56
100
AcDbEntity
  8
1
  6
Continuous
 62
     7
100
AcDbLine
 10
-25.0
 20
-53.50003326106162
 30
0.0
 11
-24.01217782648746
 21
-57.00003326106162
 31
0.0
  0
LINE
  5
1D1
330
56
100
AcDbEntity
  8
1
  6
Continuous
 62
     7
100
AcDbLine
 10
-24.01217782648746
 20
-57.00003326106162
 30
0.0
 11
0.0
 21
-57.00003326106162
 31
0.0
  0
LINE
  5
1D2
330
56
100
AcDbEntity
  8
1
  6
Continuous
 62
     7
100
AcDbLine
 10
-25.0
 20
-53.50003326106162
 30
0.0
 11
-25.0
 21
-1.0
 31
0.0
  0
LINE
  5
1D3
330
56
100
AcDbEntity
  8
1
  6
Continuous
 62
     7
100
AcDbLine
 10
25.0
 20
-1.0
 30
0.0
 11
25.0
 21
-53.50003326106162
 31
0.0
  0
LINE
  5
1D4
330
56
100
AcDbEntity
  8
1
  6
Continuous
 62
     7
100
AcDbLine
 10
-24.0
 20
0.0
 30
0.0
 11
24.0
 21
0.0
 31
0.0
  0
LINE
  5
1D5
330
56
100
AcDbEntity
  8
1
  6
Continuous
 62
     7
100
AcDbLine
 10
24.01217782648746
 20
-57.00003326106162
 30
0.0
 11
25.0
 21
-53.50003326106162
 31
0.0
  0
LINE
  5
1D6
330
56
100
AcDbEntity
  8
1
  6
Continuous
 62
     7
100
AcDbLine
 10
0.0
 20
-57.00003326106162
 30
0.0
 11
24.01217782648746
 21
-57.00003326106162
 31
0.0
  0
LINE
  5
1D7
330
56
100
AcDbEntity
  8
1
  6
Continuous
 62
     7
100
AcDbLine
 10
-25.0
 20
-53.50003326106162
 30
0.0
 11
25.0
 21
-53.50003326106162
 31
0.0
  0
LINE
  5
1D8
330
56
100
AcDbEntity
  8
1
  6
Continuous
 62
     7
100
AcDbLine
 10
-24.0
 20
-1.0
 30
0.0
 11
24.0
 21
-1.0
 31
0.0
  0
LINE
  5
1D9
330
56
100
AcDbEntity
  8
1
  6
DOT_CENTER
 62
     2
100
AcDbLine
 10
-20.0
 20
1.20963847657217
 30
0.0
 11
-20.0
 21
-2.79036152342783
 31
0.0
  0
LINE
  5
1DA
330
56
100
AcDbEntity
  8
1
  6
DOT_CENTER
 62
     2
100
AcDbLine
 10
20.0
 20
-2.79036152342783
 30
0.0
 11
20.0
 21
1.20963847657217
 31
0.0
  0
XLINE
  5
1DB
330
56
100
AcDbEntity
  8
1
  6
DOT_CENTER
 62
     3
 60
     1
100
AcDbXline
 10
0.0
 20
-58.44214723225119
 30
0.0
 11
0.0
 21
1.0
 31
0.0
  0
ARC
  5
1DC
330
56
100
AcDbEntity
  8
1
  6
Continuous
 62
     7
100
AcDbCircle
 10
-24.0
 20
-1.0
 30
0.0
 40
1.0
100
AcDbArc
 50
90.0
 51
180.0
  0
ARC
  5
1DD
330
56
100
AcDbEntity
  8
1
  6
Continuous
 62
     7
100
AcDbCircle
 10
24.0
 20
-1.0
 30
0.0
 40
1.0
100
AcDbArc
 50
0.0
 51
90.0
  0
ENDBLK
  5
58
330
56
100
AcDbEntity
  8
0
100
AcDbBlockEnd
  0
BLOCK
  5
5A
330
59
100
AcDbEntity
  8
0
100
AcDbBlockBegin
  2
Holländer6_4
 70
     0
 71
     0
 10
-28.49999999999993
 20
0.98007408228025
 30
0.0
  3
Holländer6_4
  1

  0
LINE
  5
1DE
330
59
100
AcDbEntity
  8
0
  6
Continuous
 62
     7
100
AcDbLine
 10
-26.11649281481149
 20
0.0
 30
0.0
 11
26.11649281481161
 21
0.0
 31
0.0
  0
LINE
  5
1DF
330
59
100
AcDbEntity
  8
0
  6
Continuous
 62
     7
100
AcDbLine
 10
28.49999999999997
 20
17.0
 30
0.0
 11
-28.4999999999999
 21
17.0
 31
0.0
  0
LINE
  5
1E0
330
59
100
AcDbEntity
  8
0
  6
Continuous
 62
     7
100
AcDbLine
 10
26.11649281481161
 20
0.0
 30
0.0
 11
28.49999999999997
 21
2.0
 31
0.0
  0
LINE
  5
1E1
330
59
100
AcDbEntity
  8
0
  6
Continuous
 62
     7
100
AcDbLine
 10
-20.09910050342782
 20
0.32180073764539
 30
0.0
 11
-26.42442052344755
 21
0.32180073764545
 31
0.0
  0
LINE
  5
1E2
330
59
100
AcDbEntity
  8
0
  6
Continuous
 62
     7
100
AcDbLine
 10
28.49999999999997
 20
14.5
 30
0.0
 11
28.49999999999997
 21
2.0
 31
0.0
  0
LINE
  5
1E3
330
59
100
AcDbEntity
  8
0
  6
Continuous
 62
     7
100
AcDbLine
 10
28.49999999999997
 20
17.0
 30
0.0
 11
28.49999999999997
 21
14.5
 31
0.0
  0
LINE
  5
1E4
330
59
100
AcDbEntity
  8
0
  6
Continuous
 62
     7
100
AcDbLine
 10
28.49999999999997
 20
14.5
 30
0.0
 11
27.52442052344762
 21
14.5
 31
0.0
  0
LINE
  5
1E5
330
59
100
AcDbEntity
  8
0
  6
Continuous
 62
     7
100
AcDbLine
 10
17.27067337868172
 20
14.5
 30
0.0
 11
17.27067337868172
 21
0.32180073764542
 31
0.0
  0
LINE
  5
1E6
330
59
100
AcDbEntity
  8
0
  6
Continuous
 62
     7
100
AcDbLine
 10
26.42442052344759
 20
0.32180073764545
 30
0.0
 11
20.09910050342788
 21
0.32180073764542
 31
0.0
  0
LINE
  5
1E7
330
59
100
AcDbEntity
  8
0
  6
Continuous
 62
     7
100
AcDbLine
 10
26.42442052344759
 20
14.5
 30
0.0
 11
26.42442052344759
 21
0.32180073764545
 31
0.0
  0
LINE
  5
1E8
330
59
100
AcDbEntity
  8
0
  6
Continuous
 62
     7
100
AcDbLine
 10
2.0
 20
14.5
 30
0.0
 11
2.0
 21
1.24228263667979
 31
0.0
  0
LINE
  5
1E9
330
59
100
AcDbEntity
  8
0
  6
Continuous
 62
     7
100
AcDbLine
 10
17.27067337868172
 20
0.32180073764542
 30
0.0
 11
2.0
 21
0.32180073764542
 31
0.0
  0
LINE
  5
1EA
330
59
100
AcDbEntity
  8
0
  6
Continuous
 62
     7
100
AcDbLine
 10
2.0
 20
1.24228263667979
 30
0.0
 11
2.0
 21
0.32180073764542
 31
0.0
  0
LINE
  5
1EB
330
59
100
AcDbEntity
  8
0
  6
Continuous
 62
     7
100
AcDbLine
 10
-2.0
 20
0.32180073764542
 30
0.0
 11
-17.27067337868161
 21
0.32180073764542
 31
0.0
  0
LINE
  5
1EC
330
59
100
AcDbEntity
  8
0
  6
Continuous
 62
     7
100
AcDbLine
 10
-2.0
 20
0.32180073764542
 30
0.0
 11
-2.0
 21
1.24228263667979
 31
0.0
  0
LINE
  5
1ED
330
59
100
AcDbEntity
  8
0
  6
Continuous
 62
     7
100
AcDbLine
 10
-26.42442052344755
 20
14.5
 30
0.0
 11
-26.42442052344755
 21
0.32180073764545
 31
0.0
  0
LINE
  5
1EE
330
59
100
AcDbEntity
  8
0
  6
Continuous
 62
     7
100
AcDbLine
 10
-2.0
 20
14.5
 30
0.0
 11
-2.0
 21
1.24228263667979
 31
0.0
  0
LINE
  5
1EF
330
59
100
AcDbEntity
  8
0
  6
Continuous
 62
     7
100
AcDbLine
 10
-17.27067337868161
 20
14.5
 30
0.0
 11
-17.27067337868161
 21
0.32180073764542
 31
0.0
  0
LINE
  5
1F0
330
59
100
AcDbEntity
  8
0
  6
Continuous
 62
     7
100
AcDbLine
 10
-20.87691796273303
 20
14.5
 30
0.0
 11
-20.87691796273302
 21
1.24228263667985
 31
0.0
  0
LINE
  5
1F1
330
59
100
AcDbEntity
  8
0
  6
Continuous
 62
     7
100
AcDbLine
 10
-18.04849083798681
 20
14.5
 30
0.0
 11
-18.04849083798681
 21
1.24228263667985
 31
0.0
  0
LINE
  5
1F2
330
59
100
AcDbEntity
  8
0
  6
Continuous
 62
     7
100
AcDbLine
 10
18.04849083798692
 20
14.5
 30
0.0
 11
18.04849083798692
 21
1.24228263667987
 31
0.0
  0
LINE
  5
1F3
330
59
100
AcDbEntity
  8
0
  6
Continuous
 62
     7
100
AcDbLine
 10
27.52442052344762
 20
14.5
 30
0.0
 11
27.52442052344762
 21
1.24228263667987
 31
0.0
  0
LINE
  5
1F4
330
59
100
AcDbEntity
  8
0
  6
Continuous
 62
     7
100
AcDbLine
 10
20.87691796273307
 20
14.5
 30
0.0
 11
20.87691796273307
 21
1.24228263667987
 31
0.0
  0
LINE
  5
1F5
330
59
100
AcDbEntity
  8
0
  6
Continuous
 62
     7
100
AcDbLine
 10
-27.52442052344755
 20
14.5
 30
0.0
 11
-27.52442052344755
 21
1.2422826366799
 31
0.0
  0
LINE
  5
1F6
330
59
100
AcDbEntity
  8
0
  6
Continuous
 62
     7
100
AcDbLine
 10
0.0
 20
14.5
 30
0.0
 11
0.0
 21
1.99999999999994
 31
0.0
  0
LINE
  5
1F7
330
59
100
AcDbEntity
  8
0
  6
Continuous
 62
     7
100
AcDbLine
 10
20.15254326381663
 20
14.5
 30
0.0
 11
20.15254326381663
 21
2.0
 31
0.0
  0
LINE
  5
1F8
330
59
100
AcDbEntity
  8
0
  6
Continuous
 62
     7
100
AcDbLine
 10
-20.15254326381654
 20
14.5
 30
0.0
 11
-20.15254326381654
 21
2.00000000000003
 31
0.0
  0
LINE
  5
1F9
330
59
100
AcDbEntity
  8
0
  6
Continuous
 62
     7
100
AcDbLine
 10
-20.15254326381654
 20
14.5
 30
0.0
 11
-20.87691796273303
 21
14.5
 31
0.0
  0
LINE
  5
1FA
330
59
100
AcDbEntity
  8
0
  6
Continuous
 62
     7
100
AcDbLine
 10
-20.87691796273303
 20
14.5
 30
0.0
 11
-26.42442052344755
 21
14.5
 31
0.0
  0
LINE
  5
1FB
330
59
100
AcDbEntity
  8
0
  6
Continuous
 62
     7
100
AcDbLine
 10
-18.04849083798681
 20
14.5
 30
0.0
 11
-20.15254326381654
 21
14.5
 31
0.0
  0
LINE
  5
1FC
330
59
100
AcDbEntity
  8
0
  6
Continuous
 62
     7
100
AcDbLine
 10
-17.27067337868161
 20
14.5
 30
0.0
 11
-18.04849083798681
 21
14.5
 31
0.0
  0
LINE
  5
1FD
330
59
100
AcDbEntity
  8
0
  6
Continuous
 62
     7
100
AcDbLine
 10
-2.0
 20
14.5
 30
0.0
 11
-17.27067337868161
 21
14.5
 31
0.0
  0
LINE
  5
1FE
330
59
100
AcDbEntity
  8
0
  6
Continuous
 62
     7
100
AcDbLine
 10
0.0
 20
14.5
 30
0.0
 11
-2.0
 21
14.5
 31
0.0
  0
LINE
  5
1FF
330
59
100
AcDbEntity
  8
0
  6
Continuous
 62
     7
100
AcDbLine
 10
2.0
 20
14.5
 30
0.0
 11
0.0
 21
14.5
 31
0.0
  0
LINE
  5
200
330
59
100
AcDbEntity
  8
0
  6
Continuous
 62
     7
100
AcDbLine
 10
20.15254326381663
 20
14.5
 30
0.0
 11
18.04849083798692
 21
14.5
 31
0.0
  0
LINE
  5
201
330
59
100
AcDbEntity
  8
0
  6
Continuous
 62
     7
100
AcDbLine
 10
18.04849083798692
 20
14.5
 30
0.0
 11
17.27067337868172
 21
14.5
 31
0.0
  0
LINE
  5
202
330
59
100
AcDbEntity
  8
0
  6
Continuous
 62
     7
100
AcDbLine
 10
17.27067337868172
 20
14.5
 30
0.0
 11
2.0
 21
14.5
 31
0.0
  0
LINE
  5
203
330
59
100
AcDbEntity
  8
0
  6
Continuous
 62
     7
100
AcDbLine
 10
20.87691796273307
 20
14.5
 30
0.0
 11
20.15254326381663
 21
14.5
 31
0.0
  0
LINE
  5
204
330
59
100
AcDbEntity
  8
0
  6
Continuous
 62
     7
100
AcDbLine
 10
26.42442052344759
 20
14.5
 30
0.0
 11
20.87691796273307
 21
14.5
 31
0.0
  0
LINE
  5
205
330
59
100
AcDbEntity
  8
0
  6
Continuous
 62
     7
100
AcDbLine
 10
27.52442052344762
 20
14.5
 30
0.0
 11
26.42442052344759
 21
14.5
 31
0.0
  0
LINE
  5
206
330
59
100
AcDbEntity
  8
0
  6
Continuous
 62
     7
100
AcDbLine
 10
-28.4999999999999
 20
17.0
 30
0.0
 11
-28.49999999999993
 21
14.5
 31
0.0
  0
LINE
  5
207
330
59
100
AcDbEntity
  8
0
  6
Continuous
 62
     7
100
AcDbLine
 10
-26.11649281481149
 20
0.0
 30
0.0
 11
-28.49999999999993
 21
2.0
 31
0.0
  0
LINE
  5
208
330
59
100
AcDbEntity
  8
0
  6
Continuous
 62
     7
100
AcDbLine
 10
-28.49999999999993
 20
14.5
 30
0.0
 11
-28.49999999999993
 21
2.0
 31
0.0
  0
LINE
  5
209
330
59
100
AcDbEntity
  8
0
  6
Continuous
 62
     7
100
AcDbLine
 10
-27.52442052344755
 20
14.5
 30
0.0
 11
-28.49999999999993
 21
14.5
 31
0.0
  0
LINE
  5
20A
330
59
100
AcDbEntity
  8
0
  6
Continuous
 62
     7
100
AcDbLine
 10
-26.42442052344755
 20
14.5
 30
0.0
 11
-27.52442052344755
 21
14.5
 31
0.0
  0
SPLINE
  5
20B
330
59
100
AcDbEntity
  8
0
  6
Continuous
 62
     7
100
AcDbSpline
210
0.0
220
0.0
230
1.0
 70
     8
 71
     3
 72
    11
 73
     7
 74
     5
 42
0.0000000001
 43
0.0000000001
 44
0.00000001
 40
0.0
 40
0.0
 40
0.0
 40
0.0
 40
0.3027212935350265
 40
0.6107917910356089
 40
0.9193474267880427
 40
1.235572029839579
 40
1.235572029839579
 40
1.235572029839579
 40
1.235572029839579
 10
27.52442052344762
 20
1.242282636679875
 30
0.0
 10
27.60623958850206
 20
1.301348140960069
 30
0.0
 10
27.77132349357487
 20
1.420522860142968
 30
0.0
 10
28.01483912867032
 20
1.606613544412508
 30
0.0
 10
28.25870328753986
 20
1.799574959862442
 30
0.0
 10
28.41891225876701
 20
1.932647181034569
 30
0.0
 10
28.49999999999997
 20
2.0
 30
0.0
 11
27.52442052344762
 21
1.242282636679875
 31
0.0
 11
27.769067569064
 21
1.420574545163394
 31
0.0
 11
28.01417799195238
 21
1.607197994980766
 31
0.0
 11
28.25593752229352
 21
1.798924127377528
 31
0.0
 11
28.49999999999997
 21
2.0
 31
0.0
  0
SPLINE
  5
20C
330
59
100
AcDbEntity
  8
0
  6
Continuous
 62
     7
100
AcDbSpline
210
0.0
220
0.0
230
1.0
 70
     8
 71
     3
 72
    11
 73
     7
 74
     5
 42
0.0000000001
 43
0.0000000001
 44
0.00000001
 40
0.0
 40
0.0
 40
0.0
 40
0.0
 40
0.356534443881711
 40
0.7171622810830374
 40
1.074261003656963
 40
1.43432455476004
 40
1.43432455476004
 40
1.43432455476004
 40
1.43432455476004
 10
26.42442052344759
 20
0.3218007376454466
 30
0.0
 10
26.5155676185974
 20
0.3980653887733511
 30
0.0
 10
26.69890827415946
 20
0.551470290059792
 30
0.0
 10
26.97353188759846
 20
0.7812705760240279
 30
0.0
 10
27.2490522570841
 20
1.011832271175911
 30
0.0
 10
27.43237847101336
 20
1.165254426765487
 30
0.0
 10
27.52442052344762
 20
1.242282636679875
 30
0.0
 11
26.42442052344759
 21
0.3218007376454466
 31
0.0
 11
26.69786042397259
 21
0.5505963461586388
 31
0.0
 11
26.97443315712812
 21
0.7820265953469914
 31
0.0
 11
27.24829304843282
 21
1.011199581535394
 31
0.0
 11
27.52442052344762
 21
1.242282636679875
 31
0.0
  0
SPLINE
  5
20D
330
59
100
AcDbEntity
  8
0
  6
Continuous
 62
     7
100
AcDbSpline
210
0.0
220
0.0
230
1.0
 70
     8
 71
     3
 72
    11
 73
     7
 74
     5
 42
0.0000000001
 43
0.0000000001
 44
0.00000001
 40
0.0
 40
0.0
 40
0.0
 40
0.0
 40
0.3000460932137711
 40
0.6025485779371034
 40
0.9024270600246989
 40
1.205108678842862
 40
1.205108678842862
 40
1.205108678842862
 40
1.205108678842862
 10
17.27067337868172
 20
0.3218007376454182
 30
0.0
 10
17.335230291934
 20
0.3981910385339346
 30
0.0
 10
17.46487262741493
 20
0.551597025845921
 30
0.0
 10
17.65902740472004
 20
0.7813577470322728
 30
0.0
 10
17.85374378547317
 20
1.011794063554121
 30
0.0
 10
17.98337413840208
 20
1.165215204951178
 30
0.0
 10
18.04849083798692
 20
1.242282636679875
 30
0.0
 11
17.27067337868172
 21
0.3218007376454182
 31
0.0
 11
17.46434272622862
 21
0.550972816820881
 31
0.0
 11
17.65959104169539
 21
0.782026595346963
 31
0.0
 11
17.85313941782175
 21
1.011081458028393
 31
0.0
 11
18.04849083798692
 21
1.242282636679875
 31
0.0
  0
SPLINE
  5
20E
330
59
100
AcDbEntity
  8
0
  6
Continuous
 62
     7
100
AcDbSpline
210
0.0
220
0.0
230
1.0
 70
     8
 71
     3
 72
    11
 73
     7
 74
     5
 42
0.0000000001
 43
0.0000000001
 44
0.00000001
 40
0.0
 40
0.0
 40
0.0
 40
0.0
 40
0.3030634823404351
 40
0.602560071874158
 40
0.9053090841210065
 40
1.205108678842856
 40
1.205108678842856
 40
1.205108678842856
 40
1.205108678842856
 10
20.87691796273307
 20
1.242282636679875
 30
0.0
 10
20.81171911120681
 20
1.165117977110853
 30
0.0
 10
20.68208876327316
 20
1.01169684416213
 30
0.0
 10
20.48731934674665
 20
0.7811977702881179
 30
0.0
 10
20.2932467239982
 20
0.5515342747322198
 30
0.0
 10
20.16360438134853
 20
0.398128280808473
 30
0.0
 10
20.09910050342788
 20
0.3218007376454182
 30
0.0
 11
20.87691796273307
 21
1.242282636679875
 31
0.0
 11
20.68132008309109
 21
1.010789777593738
 31
0.0
 11
20.48801818517947
 21
0.782026617521808
 31
0.0
 11
20.29261074742887
 21
0.5507845415750001
 31
0.0
 11
20.09910050342788
 21
0.3218007376454182
 31
0.0
  0
SPLINE
  5
20F
330
59
100
AcDbEntity
  8
0
  6
Continuous
 62
     7
100
AcDbSpline
210
0.0
220
0.0
230
1.0
 70
     8
 71
     3
 72
    11
 73
     7
 74
     5
 42
0.0000000001
 43
0.0000000001
 44
0.00000001
 40
0.0
 40
0.0
 40
0.0
 40
0.0
 40
0.5572269721003429
 40
1.117553861278622
 40
1.673976819330353
 40
2.236567027302894
 40
2.236567027302894
 40
2.236567027302894
 40
2.236567027302894
 10
18.04849083798692
 20
1.242282636679875
 30
0.0
 10
18.22463327158387
 20
1.301233873747768
 30
0.0
 10
18.57789803918709
 20
1.419464300326099
 30
0.0
 10
19.10388877635849
 20
1.605781995217439
 30
0.0
 10
19.62944685158719
 20
1.798559285544445
 30
0.0
 10
19.97753831086724
 20
1.932606835124069
 30
0.0
 10
20.15254326381663
 20
2.0
 30
0.0
 11
18.04849083798692
 21
1.242282636679875
 31
0.0
 11
18.57639326978325
 21
1.420666831438379
 31
0.0
 11
19.10476089536579
 21
1.607197994980766
 31
0.0
 11
19.62699521481237
 21
1.799233991187745
 31
0.0
 11
20.15254326381663
 21
2.0
 31
0.0
  0
SPLINE
  5
210
330
59
100
AcDbEntity
  8
0
  6
Continuous
 62
     7
100
AcDbSpline
210
0.0
220
0.0
230
1.0
 70
     8
 71
     3
 72
    11
 73
     7
 74
     5
 42
0.0000000001
 43
0.0000000001
 44
0.00000001
 40
0.0
 40
0.0
 40
0.0
 40
0.0
 40
0.2548416281953066
 40
0.5152040007317913
 40
0.7783503995211765
 40
1.048535540054565
 40
1.048535540054565
 40
1.048535540054565
 40
1.048535540054565
 10
-20.87691796273302
 20
1.242282636679846
 30
0.0
 10
-20.81601211124002
 20
1.301503962133332
 30
0.0
 10
-20.69288097846795
 20
1.421229550210694
 30
0.0
 10
-20.51207931737832
 20
1.607346852162884
 30
0.0
 10
-20.33104516682516
 20
1.800301073587814
 30
0.0
 10
-20.2125651189428
 20
1.932850575663611
 30
0.0
 10
-20.15254326381654
 20
2.000000000000028
 30
0.0
 11
-20.87691796273302
 21
1.242282636679846
 31
0.0
 11
-20.69504581739177
 21
1.420795320291415
 31
0.0
 11
-20.51326955958706
 21
1.607197994980766
 31
0.0
 11
-20.33342184226825
 21
1.79929387148788
 31
0.0
 11
-20.15254326381654
 21
2.000000000000028
 31
0.0
  0
SPLINE
  5
211
330
59
100
AcDbEntity
  8
0
  6
Continuous
 62
     7
100
AcDbSpline
210
0.0
220
0.0
230
1.0
 70
     8
 71
     3
 72
    11
 73
     7
 74
     5
 42
0.0000000001
 43
0.0000000001
 44
0.00000001
 40
0.0
 40
0.0
 40
0.0
 40
0.0
 40
0.3029841451700551
 40
0.6025600718740717
 40
0.9052052272631217
 40
1.205108678842841
 40
1.205108678842841
 40
1.205108678842841
 40
1.205108678842841
 10
-18.04849083798681
 20
1.242282636679846
 30
0.0
 10
-17.98330905460821
 20
1.165138177472838
 30
0.0
 10
-17.85367870693621
 20
1.011717044303077
 30
0.0
 10
-17.65893163508036
 20
0.7812444125843016
 30
0.0
 10
-17.46484194416833
 20
0.5515607166798768
 30
0.0
 10
-17.33519960190438
 20
0.3981547224301022
 30
0.0
 10
-17.27067337868161
 20
0.3218007376454182
 30
0.0
 11
-18.04849083798681
 21
1.242282636679846
 31
0.0
 11
-17.85294416354427
 21
1.010850378040539
 31
0.0
 11
-17.65959106043331
 21
0.782026617521808
 31
0.0
 11
-17.46425065755314
 21
0.5508638673152164
 31
0.0
 11
-17.27067337868161
 21
0.3218007376454182
 31
0.0
  0
SPLINE
  5
212
330
59
100
AcDbEntity
  8
0
  6
Continuous
 62
     7
100
AcDbSpline
210
0.0
220
0.0
230
1.0
 70
     8
 71
     3
 72
    11
 73
     7
 74
     5
 42
0.0000000001
 43
0.0000000001
 44
0.00000001
 40
0.0
 40
0.0
 40
0.0
 40
0.0
 40
0.5326709137377246
 40
1.068318199097694
 40
1.599787246622673
 40
2.138967658773319
 40
2.138967658773319
 40
2.138967658773319
 40
2.138967658773319
 10
-2.0
 20
1.242282636679789
 30
0.0
 10
-1.832517881866036
 20
1.301252116673134
 30
0.0
 10
-1.496617816344453
 20
1.419520576698786
 30
0.0
 10
-0.996903031564587
 20
1.60574305971049
 30
0.0
 10
-0.497354166728629
 20
1.798509705112854
 30
0.0
 10
-0.1665788598501811
 20
1.932514843870786
 30
0.0
 10
0.0
 20
1.999999999999943
 30
0.0
 11
-2.0
 21
1.242282636679789
 31
0.0
 11
-1.498099763168861
 21
1.420704761459841
 31
0.0
 11
-0.9959660278309173
 21
1.607197994980709
 31
0.0
 11
-0.5002920947351398
 21
1.798944443517496
 31
0.0
 11
0.0
 21
1.999999999999943
 31
0.0
  0
SPLINE
  5
213
330
59
100
AcDbEntity
  8
0
  6
Continuous
 62
     7
100
AcDbSpline
210
0.0
220
0.0
230
1.0
 70
     8
 71
     3
 72
    11
 73
     7
 74
     5
 42
0.0000000001
 43
0.0000000001
 44
0.00000001
 40
0.0
 40
0.0
 40
0.0
 40
0.0
 40
0.5373993797833378
 40
1.069443421308292
 40
1.607942683634282
 40
2.138967656981784
 40
2.138967656981784
 40
2.138967656981784
 40
2.138967656981784
 10
0.0
 20
1.999999999999943
 30
0.0
 10
0.1660278787675819
 20
1.932736000041922
 30
0.0
 10
0.49642912108637
 20
1.798878305090752
 30
0.0
 10
0.9964824812667444
 20
1.605895035022593
 30
0.0
 10
1.496754345240394
 20
1.419466590975112
 30
0.0
 10
1.833034805240742
 20
1.301068148600931
 30
0.0
 10
2.0
 20
1.242282636679789
 30
0.0
 11
0.0
 21
1.999999999999943
 31
0.0
 11
0.4986352390933071
 21
1.799597924846324
 31
0.0
 11
0.9948383386407045
 21
1.607625671325764
 31
0.0
 11
1.499646722042044
 21
1.420142467882461
 31
0.0
 11
2.0
 21
1.242282636679789
 31
0.0
  0
SPLINE
  5
214
330
59
100
AcDbEntity
  8
0
  6
Continuous
 62
     7
100
AcDbSpline
210
0.0
220
0.0
230
1.0
 70
     8
 71
     3
 72
    11
 73
     7
 74
     5
 42
0.0000000001
 43
0.0000000001
 44
0.00000001
 40
0.0
 40
0.0
 40
0.0
 40
0.0
 40
0.2995895481219494
 40
0.6025485779371604
 40
0.902399840253081
 40
1.205108678842862
 40
1.205108678842862
 40
1.205108678842862
 40
1.205108678842862
 10
-20.09910050342782
 20
0.3218007376453898
 30
0.0
 10
-20.1635591888036
 20
0.3980748036283152
 30
0.0
 10
-20.29320152596907
 20
0.5514807895166784
 30
0.0
 10
-20.48735045157262
 20
0.7812345766120038
 30
0.0
 10
-20.68216505419992
 20
1.011787133111572
 30
0.0
 10
-20.81179540723378
 20
1.165208274419937
 30
0.0
 10
-20.87691796273302
 20
1.242282636679846
 30
0.0
 11
-20.09910050342782
 21
0.3218007376453898
 31
0.0
 11
-20.29247517191499
 21
0.5506241082424282
 31
0.0
 11
-20.48801816644154
 21
0.782026595346963
 31
0.0
 11
-20.68154897458832
 21
1.011060666634418
 31
0.0
 11
-20.87691796273302
 21
1.242282636679846
 31
0.0
  0
SPLINE
  5
215
330
59
100
AcDbEntity
  8
0
  6
Continuous
 62
     7
100
AcDbSpline
210
0.0
220
0.0
230
1.0
 70
     8
 71
     3
 72
    11
 73
     7
 74
     5
 42
0.0000000001
 43
0.0000000001
 44
0.00000001
 40
0.0
 40
0.0
 40
0.0
 40
0.0
 40
0.5642569523149505
 40
1.117752100086375
 40
1.68094347022089
 40
2.236567027136025
 40
2.236567027136025
 40
2.236567027136025
 40
2.236567027136025
 10
-20.15254326381654
 20
2.000000000000028
 30
0.0
 10
-19.97701924462943
 20
1.932408651162715
 30
0.0
 10
-19.62931889241031
 20
1.798515091144322
 30
0.0
 10
-19.10325876403705
 20
1.605555055968282
 30
0.0
 10
-18.57779144173887
 20
1.419423026810909
 30
0.0
 10
-18.2241269613502
 20
1.301062564745585
 30
0.0
 10
-18.04849083798681
 20
1.242282636679846
 30
0.0
 11
-20.15254326381654
 21
2.000000000000028
 31
0.0
 11
-19.62543450245814
 21
1.798648908781313
 31
0.0
 11
-19.10594725395387
 21
1.60762567132582
 31
0.0
 11
-18.57487772647189
 21
1.420143201814505
 31
0.0
 11
-18.04849083798681
 21
1.242282636679846
 31
0.0
  0
SPLINE
  5
216
330
59
100
AcDbEntity
  8
0
  6
Continuous
 62
     7
100
AcDbSpline
210
0.0
220
0.0
230
1.0
 70
     8
 71
     3
 72
    11
 73
     7
 74
     5
 42
0.0000000001
 43
0.0000000001
 44
0.00000001
 40
0.0
 40
0.0
 40
0.0
 40
0.0
 40
0.271273212779132
 40
0.5327401945162253
 40
0.7941324719494891
 40
1.04853554123752
 40
1.04853554123752
 40
1.04853554123752
 40
1.04853554123752
 10
20.15254326381663
 20
2.0
 30
0.0
 10
20.21280798816116
 20
1.932581142074791
 30
0.0
 10
20.33115893273419
 20
1.800180544473654
 30
0.0
 10
20.51229609441843
 20
1.607122868842748
 30
0.0
 10
20.69284282757287
 20
1.421263303142571
 30
0.0
 10
20.81611638434629
 20
1.301401468846852
 30
0.0
 10
20.87691796273307
 20
1.242282636679875
 30
0.0
 11
20.15254326381663
 21
2.0
 31
0.0
 11
20.33415785222048
 21
1.798492438726456
 31
0.0
 11
20.51286112482828
 21
1.60762567132582
 31
0.0
 11
20.69535538224543
 21
1.420484631701932
 31
0.0
 11
20.87691796273307
 21
1.242282636679875
 31
0.0
  0
SPLINE
  5
217
330
59
100
AcDbEntity
  8
0
  6
Continuous
 62
     7
100
AcDbSpline
210
0.0
220
0.0
230
1.0
 70
     8
 71
     3
 72
    11
 73
     7
 74
     5
 42
0.0000000001
 43
0.0000000001
 44
0.00000001
 40
0.0
 40
0.0
 40
0.0
 40
0.0
 40
0.3605450323492517
 40
0.7171622391235426
 40
1.077853605382801
 40
1.434324554760035
 40
1.434324554760035
 40
1.434324554760035
 40
1.434324554760035
 10
-27.52442052344755
 20
1.242282636679903
 30
0.0
 10
-27.43225539062912
 20
1.165151424520749
 30
0.0
 10
-27.2489291842174
 20
1.011729277894725
 30
0.0
 10
-26.97339257931337
 20
0.7811540047659705
 30
0.0
 10
-26.69889205110484
 20
0.5514567152551366
 30
0.0
 10
-26.51555138649859
 20
0.3980518068293324
 30
0.0
 10
-26.42442052344755
 20
0.3218007376454466
 30
0.0
 11
-27.52442052344755
 21
1.242282636679903
 31
0.0
 11
-27.24792380340834
 21
1.010890579427969
 31
0.0
 11
-26.97443318362747
 21
0.7820266175218364
 31
0.0
 11
-26.69781172818762
 21
0.5505555997154836
 31
0.0
 11
-26.42442052344755
 21
0.3218007376454466
 31
0.0
  0
SPLINE
  5
218
330
59
100
AcDbEntity
  8
0
  6
Continuous
 62
     7
100
AcDbSpline
210
0.0
220
0.0
230
1.0
 70
     8
 71
     3
 72
    11
 73
     7
 74
     5
 42
0.0000000001
 43
0.0000000001
 44
0.00000001
 40
0.0
 40
0.0
 40
0.0
 40
0.0
 40
0.3152853567699069
 40
0.6240832424872198
 40
0.9336075338115464
 40
1.235572026818141
 40
1.235572026818141
 40
1.235572026818141
 40
1.235572026818141
 10
-28.49999999999993
 20
2.0
 30
0.0
 10
-28.41915402129438
 20
1.932846159583968
 30
0.0
 10
-28.25912559165364
 20
1.799920270155834
 30
0.0
 10
-28.01507368544556
 20
1.606789598688181
 30
0.0
 10
-27.77130954703364
 20
1.420507994780753
 30
0.0
 10
-27.60603577480816
 20
1.301199421188802
 30
0.0
 10
-27.52442052344755
 20
1.242282636679903
 30
0.0
 11
-28.49999999999993
 21
2.0
 31
0.0
 11
-28.25666792221687
 21
1.79951469850558
 31
0.0
 11
-28.01472826912924
 21
1.607625828355907
 31
0.0
 11
-27.76846068464538
 21
1.420122325049143
 31
0.0
 11
-27.52442052344755
 21
1.242282636679903
 31
0.0
  0
ENDBLK
  5
5B
330
59
100
AcDbEntity
  8
0
100
AcDbBlockEnd
  0
BLOCK
  5
5D
330
5C
100
AcDbEntity
  8
0
100
AcDbBlockBegin
  2
HL904Körper__3
 70
     0
 71
     0
 10
-28.99999999999999
 20
17.98007408228025
 30
0.0
  3
HL904Körper__3
  1

  0
LINE
  5
219
330
5C
100
AcDbEntity
  8
0
  6
Continuous
 62
     7
100
AcDbLine
 10
-27.60000000000215
 20
64.69996673892743
 30
0.0
 11
-28.99999999999999
 21
64.69996673892743
 31
0.0
  0
LINE
  5
21A
330
5C
100
AcDbEntity
  8
0
  6
Continuous
 62
     7
100
AcDbLine
 10
-26.49999999999999
 20
63.69996673892743
 30
0.0
 11
-28.99999999999999
 21
63.69996673892743
 31
0.0
  0
LINE
  5
21B
330
5C
100
AcDbEntity
  8
0
  6
Continuous
 62
     7
100
AcDbLine
 10
28.99999999999997
 20
63.69996673892743
 30
0.0
 11
22.27160488467101
 21
63.69996673892743
 31
0.0
  0
LINE
  5
21C
330
5C
100
AcDbEntity
  8
0
  6
Continuous
 62
     7
100
AcDbLine
 10
-23.90149999999998
 20
19.98007408228025
 30
0.0
 11
-23.90149999999998
 21
17.0
 31
0.0
  0
LINE
  5
21D
330
5C
100
AcDbEntity
  8
0
  6
Continuous
 62
     7
100
AcDbLine
 10
-22.05000000001017
 20
20.90470053837922
 30
0.0
 11
-22.30000000001017
 21
20.90470053837922
 31
0.0
  0
LINE
  5
21E
330
5C
100
AcDbEntity
  8
0
  6
Continuous
 62
     7
100
AcDbLine
 10
-22.30000000001017
 20
20.90470053837922
 30
0.0
 11
-23.90149999999998
 21
19.98007408228025
 31
0.0
  0
LINE
  5
21F
330
5C
100
AcDbEntity
  8
0
  6
Continuous
 62
     7
100
AcDbLine
 10
22.30000000001022
 20
20.90470053837922
 30
0.0
 11
22.05000000001022
 21
20.90470053837922
 31
0.0
  0
LINE
  5
220
330
5C
100
AcDbEntity
  8
0
  6
Continuous
 62
     7
100
AcDbLine
 10
-22.05000000001017
 20
32.87375371726688
 30
0.0
 11
-22.05000000001017
 21
20.90470053837922
 31
0.0
  0
LINE
  5
221
330
5C
100
AcDbEntity
  8
0
  6
Continuous
 62
     7
100
AcDbLine
 10
-22.05000000001017
 20
32.87375371726688
 30
0.0
 11
22.05000000001022
 21
32.87375371726688
 31
0.0
  0
LINE
  5
222
330
5C
100
AcDbEntity
  8
0
  6
Continuous
 62
     7
100
AcDbLine
 10
22.27160488467101
 20
63.69996673892743
 30
0.0
 11
18.90170320735419
 21
63.69996673892743
 31
0.0
  0
LINE
  5
223
330
5C
100
AcDbEntity
  8
0
  6
Continuous
 62
     7
100
AcDbLine
 10
22.05000000001022
 20
20.90470053837922
 30
0.0
 11
-22.05000000001017
 21
20.90470053837922
 31
0.0
  0
LINE
  5
224
330
5C
100
AcDbEntity
  8
0
  6
Continuous
 62
     7
100
AcDbLine
 10
14.43168385880122
 20
32.89996673892745
 30
0.0
 11
22.04999999999998
 21
32.89996673892745
 31
0.0
  0
LINE
  5
225
330
5C
100
AcDbEntity
  8
0
  6
Continuous
 62
     7
100
AcDbLine
 10
21.04999999999998
 20
33.89996673892745
 30
0.0
 11
15.32038336095289
 21
33.89996673892745
 31
0.0
  0
LINE
  5
226
330
5C
100
AcDbEntity
  8
0
  6
Continuous
 62
     7
100
AcDbLine
 10
18.90170320735419
 20
63.69996673892743
 30
0.0
 11
-26.49999999999999
 21
63.69996673892743
 31
0.0
  0
LINE
  5
227
330
5C
100
AcDbEntity
  8
0
  6
Continuous
 62
     7
100
AcDbLine
 10
22.05000000001022
 20
32.87375371726688
 30
0.0
 11
22.05000000001022
 21
20.90470053837922
 31
0.0
  0
LINE
  5
228
330
5C
100
AcDbEntity
  8
0
  6
Continuous
 62
     7
100
AcDbLine
 10
22.30000000001022
 20
20.90470053837922
 30
0.0
 11
23.90149999999997
 21
19.98007408228025
 31
0.0
  0
LINE
  5
229
330
5C
100
AcDbEntity
  8
0
  6
Continuous
 62
     7
100
AcDbLine
 10
23.90149999999997
 20
19.98007408228025
 30
0.0
 11
-23.90149999999998
 21
19.98007408228025
 31
0.0
  0
LINE
  5
22A
330
5C
100
AcDbEntity
  8
0
  6
Continuous
 62
     7
100
AcDbLine
 10
23.90149999999997
 20
19.98007408228025
 30
0.0
 11
23.90149999999997
 21
17.0
 31
0.0
  0
LINE
  5
22B
330
5C
100
AcDbEntity
  8
0
  6
Continuous
 62
     7
100
AcDbLine
 10
22.04999999999998
 20
32.89996673892745
 30
0.0
 11
22.08908929083762
 21
32.89996673892745
 31
0.0
  0
LINE
  5
22C
330
5C
100
AcDbEntity
  8
0
  6
Continuous
 62
     7
100
AcDbLine
 10
18.90170320735419
 20
63.69996673892743
 30
0.0
 11
18.90170320735408
 21
41.19225718843808
 31
0.0
  0
LINE
  5
22D
330
5C
100
AcDbEntity
  8
0
  6
Continuous
 62
     7
100
AcDbLine
 10
-26.49999999999999
 20
63.69996673892743
 30
0.0
 11
-26.49999999999999
 21
41.19225718843805
 31
0.0
  0
LINE
  5
22E
330
5C
100
AcDbEntity
  8
0
  6
Continuous
 62
     7
100
AcDbLine
 10
-27.60000000000215
 20
65.19996673892743
 30
0.0
 11
-27.60000000000215
 21
64.69996673892743
 31
0.0
  0
LINE
  5
22F
330
5C
100
AcDbEntity
  8
0
  6
Continuous
 62
     7
100
AcDbLine
 10
-26.49999999999999
 20
41.19225718843805
 30
0.0
 11
18.90170320735408
 21
41.19225718843808
 31
0.0
  0
LINE
  5
230
330
5C
100
AcDbEntity
  8
0
  6
Continuous
 62
     7
100
AcDbLine
 10
27.60000000000221
 20
65.19996673892743
 30
0.0
 11
27.60000000000221
 21
64.69996673892743
 31
0.0
  0
LINE
  5
231
330
5C
100
AcDbEntity
  8
0
  6
Continuous
 62
     7
100
AcDbLine
 10
28.99999999999997
 20
64.69996673892743
 30
0.0
 11
28.99999999999997
 21
63.69996673892743
 31
0.0
  0
LINE
  5
232
330
5C
100
AcDbEntity
  8
0
  6
Continuous
 62
     7
100
AcDbLine
 10
27.60000000000221
 20
64.69996673892743
 30
0.0
 11
-27.60000000000215
 21
64.69996673892743
 31
0.0
  0
LINE
  5
233
330
5C
100
AcDbEntity
  8
0
  6
Continuous
 62
     7
100
AcDbLine
 10
28.99999999999997
 20
64.69996673892743
 30
0.0
 11
27.60000000000221
 21
64.69996673892743
 31
0.0
  0
LINE
  5
234
330
5C
100
AcDbEntity
  8
0
  6
Continuous
 62
     7
100
AcDbLine
 10
-28.99999999999999
 20
64.69996673892743
 30
0.0
 11
-28.99999999999999
 21
63.69996673892743
 31
0.0
  0
LINE
  5
235
330
5C
100
AcDbEntity
  8
1
  6
Continuous
 62
     2
100
AcDbLine
 10
-23.10149999999998
 20
19.98007408228025
 30
0.0
 11
-23.10149999999998
 21
17.0
 31
0.0
  0
LINE
  5
236
330
5C
100
AcDbEntity
  8
1
  6
Continuous
 62
     2
100
AcDbLine
 10
23.10149999999997
 20
19.98007408228025
 30
0.0
 11
23.10149999999997
 21
17.0
 31
0.0
  0
ARC
  5
237
330
5C
100
AcDbEntity
  8
0
  6
Continuous
 62
     7
100
AcDbCircle
 10
21.04999999999998
 20
32.89996673892745
 30
0.0
 40
1.0
100
AcDbArc
 50
0.0
 51
90.0
  0
ARC
  5
238
330
5C
100
AcDbEntity
  8
0
  6
Continuous
 62
     7
100
AcDbCircle
 10
16.5000000000027
 20
41.19225718843984
 30
0.0
 40
10.0
100
AcDbArc
 50
-56.28928521852229
 51
-56.01962354370363
  0
ARC
  5
239
330
5C
100
AcDbEntity
  8
0
  6
Continuous
 62
     7
100
AcDbCircle
 10
-16.5
 20
41.19225718843805
 30
0.0
 40
9.99999999999999
100
AcDbArc
 50
180.0
 51
-123.710714781496
  0
SPLINE
  5
23A
330
5C
100
AcDbEntity
  8
0
  6
Continuous
 62
     7
100
AcDbSpline
210
0.0
220
0.0
230
1.0
 70
     8
 71
     3
 72
    11
 73
     7
 74
     5
 42
0.0000000001
 43
0.0000000001
 44
0.00000001
 40
0.0
 40
0.0
 40
0.0
 40
0.0
 40
0.8307511221186238
 40
1.638259388675044
 40
2.484099750132689
 40
3.181105597203501
 40
3.181105597203501
 40
3.181105597203501
 40
3.181105597203501
 10
16.28233349797009
 20
35.46862197994267
 30
0.0
 10
16.15408035371347
 20
35.22299368794472
 30
0.0
 10
15.90116234721152
 20
34.73860932206672
 30
0.0
 10
15.44286940314584
 20
34.04761659597798
 30
0.0
 10
14.95913559225864
 20
33.42911982026929
 30
0.0
 10
14.59581833426732
 20
33.06463064642473
 30
0.0
 10
14.43168385880122
 20
32.89996673892745
 30
0.0
 11
16.28233349797009
 21
35.46862197994267
 31
0.0
 11
15.88489033565814
 21
34.73911093846843
 31
0.0
 11
15.44153183263288
 21
34.06420143464428
 31
0.0
 11
14.91474407221349
 21
33.40243064914289
 31
0.0
 11
14.43168385880122
 21
32.89996673892745
 31
0.0
  0
SPLINE
  5
23B
330
5C
100
AcDbEntity
  8
0
  6
Continuous
 62
     7
100
AcDbSpline
210
0.0
220
0.0
230
1.0
 70
     8
 71
     3
 72
    15
 73
    11
 74
     9
 42
0.0000000001
 43
0.0000000001
 44
0.00000001
 40
0.0
 40
0.0
 40
0.0
 40
0.0
 40
0.8084723645357387
 40
1.62189688348323
 40
2.363461491409057
 40
3.237108606078243
 40
4.036056954541633
 40
4.858259371029584
 40
5.708900756417078
 40
6.471989673499508
 40
6.471989673499508
 40
6.471989673499508
 40
6.471989673499508
 10
18.90170320735408
 20
41.19225718843808
 30
0.0
 10
18.89285889830026
 20
40.92262552170274
 30
0.0
 10
18.8751161059425
 20
40.38171060716815
 30
0.0
 10
18.73641904066402
 20
39.60356245391974
 30
0.0
 10
18.51633669043375
 20
38.8235220151476
 30
0.0
 10
18.2133586820715
 20
38.07589756361133
 30
0.0
 10
17.82033152515953
 20
37.34146554258273
 30
0.0
 10
17.35982232042686
 20
36.65689809235509
 30
0.0
 10
16.84620558118866
 20
36.0257609396162
 30
0.0
 10
16.46336726520684
 20
35.64749404640204
 30
0.0
 10
16.28233349797009
 20
35.46862197994267
 30
0.0
 11
18.90170320735408
 21
41.19225718843808
 31
0.0
 11
18.85592922028331
 21
40.38508167696263
 31
0.0
 11
18.7186130783941
 21
39.58333126367828
 31
0.0
 11
18.51643043653546
 21
38.86986069872185
 31
0.0
 11
18.1893638502016
 21
38.0597454420616
 31
0.0
 11
17.81266805823661
 21
37.35517554217355
 31
0.0
 11
17.3552019957111
 21
36.67199063651768
 31
0.0
 11
16.81591286249187
 21
36.01414719212866
 31
0.0
 11
16.28233349797009
 21
35.46862197994267
 31
0.0
  0
ENDBLK
  5
5E
330
5C
100
AcDbEntity
  8
0
100
AcDbBlockEnd
  0
BLOCK
  5
60
330
5F
100
AcDbEntity
  8
0
100
AcDbBlockBegin
  2
HL904Deckel__4
 70
     0
 71
     0
 10
-28.99999999999999
 20
65.19996673892743
 30
0.0
  3
HL904Deckel__4
  1

  0
LINE
  5
23C
330
5F
100
AcDbEntity
  8
1
  6
PHANTOM
 62
     2
100
AcDbLine
 10
0.0
 20
-2.68713522581055
 30
0.0
 11
0.0
 21
101.3763811866981
 31
0.0
  0
LINE
  5
23D
330
5F
100
AcDbEntity
  8
0
  6
Continuous
 62
     7
100
AcDbLine
 10
-28.99999999999999
 20
65.19996673892743
 30
0.0
 11
28.99999999999997
 21
65.19996673892743
 31
0.0
  0
LINE
  5
23E
330
5F
100
AcDbEntity
  8
0
  6
Continuous
 62
     7
100
AcDbLine
 10
-13.29999999999902
 20
96.99996673892633
 30
0.0
 11
-2.5
 21
96.99996673892744
 31
0.0
  0
LINE
  5
23F
330
5F
100
AcDbEntity
  8
0
  6
Continuous
 62
     7
100
AcDbLine
 10
6.17492742341031
 20
96.99996673892744
 30
0.0
 11
6.28710114927381
 21
96.99996673892744
 31
0.0
  0
LINE
  5
240
330
5F
100
AcDbEntity
  8
0
  6
Continuous
 62
     7
100
AcDbLine
 10
7.43693137436648
 20
97.19996673892743
 30
0.0
 11
6.68637602441888
 21
97.19996673892743
 31
0.0
  0
LINE
  5
241
330
5F
100
AcDbEntity
  8
0
  6
Continuous
 62
     7
100
AcDbLine
 10
7.43693137436648
 20
96.99996673892744
 30
0.0
 11
7.43693137436648
 21
97.19996673892743
 31
0.0
  0
LINE
  5
242
330
5F
100
AcDbEntity
  8
0
  6
Continuous
 62
     7
100
AcDbLine
 10
-2.5
 20
96.99996673892744
 30
0.0
 11
-2.5
 21
97.19996673892743
 31
0.0
  0
LINE
  5
243
330
5F
100
AcDbEntity
  8
0
  6
Continuous
 62
     7
100
AcDbLine
 10
-2.5
 20
97.19996673892743
 30
0.0
 11
2.5
 21
97.19996673892743
 31
0.0
  0
LINE
  5
244
330
5F
100
AcDbEntity
  8
0
  6
Continuous
 62
     7
100
AcDbLine
 10
2.5
 20
96.99996673892744
 30
0.0
 11
2.5
 21
97.19996673892743
 31
0.0
  0
LINE
  5
245
330
5F
100
AcDbEntity
  8
0
  6
Continuous
 62
     7
100
AcDbLine
 10
6.28710114927381
 20
96.99996673892744
 30
0.0
 11
6.3339676811114
 21
96.99996673892744
 31
0.0
  0
LINE
  5
246
330
5F
100
AcDbEntity
  8
0
  6
Continuous
 62
     7
100
AcDbLine
 10
6.3339676811114
 20
96.99996673892744
 30
0.0
 11
6.42188873420199
 21
96.99996673892744
 31
0.0
  0
LINE
  5
247
330
5F
100
AcDbEntity
  8
0
  6
Continuous
 62
     7
100
AcDbLine
 10
6.42188873420199
 20
96.99996673892744
 30
0.0
 11
6.51536523454919
 21
96.99996673892744
 31
0.0
  0
LINE
  5
248
330
5F
100
AcDbEntity
  8
0
  6
Continuous
 62
     7
100
AcDbLine
 10
6.51536523454919
 20
96.99996673892744
 30
0.0
 11
6.68637602441888
 21
96.99996673892744
 31
0.0
  0
LINE
  5
249
330
5F
100
AcDbEntity
  8
0
  6
Continuous
 62
     7
100
AcDbLine
 10
6.68637602441888
 20
96.99996673892744
 30
0.0
 11
7.43693137436648
 21
96.99996673892744
 31
0.0
  0
LINE
  5
24A
330
5F
100
AcDbEntity
  8
0
  6
Continuous
 62
     7
100
AcDbLine
 10
5.9847350445414
 20
96.99996673892744
 30
0.0
 11
6.17492742341031
 21
96.99996673892744
 31
0.0
  0
LINE
  5
24B
330
5F
100
AcDbEntity
  8
0
  6
Continuous
 62
     7
100
AcDbLine
 10
3.1347350445505
 20
96.99996673892633
 30
0.0
 11
3.30973504455079
 21
96.99996673892744
 31
0.0
  0
LINE
  5
24C
330
5F
100
AcDbEntity
  8
0
  6
Continuous
 62
     7
100
AcDbLine
 10
5.884735044541
 20
96.99996673892744
 30
0.0
 11
5.9847350445414
 21
96.99996673892744
 31
0.0
  0
LINE
  5
24D
330
5F
100
AcDbEntity
  8
0
  6
Continuous
 62
     7
100
AcDbLine
 10
3.1347350445505
 20
97.19996673892743
 30
0.0
 11
3.30973504455079
 21
97.19996673892743
 31
0.0
  0
LINE
  5
24E
330
5F
100
AcDbEntity
  8
0
  6
Continuous
 62
     7
100
AcDbLine
 10
3.1347350445505
 20
96.99996673892633
 30
0.0
 11
3.1347350445505
 21
97.19996673892743
 31
0.0
  0
LINE
  5
24F
330
5F
100
AcDbEntity
  8
0
  6
Continuous
 62
     7
100
AcDbLine
 10
3.30973504455079
 20
96.99996673892744
 30
0.0
 11
5.884735044541
 21
96.99996673892744
 31
0.0
  0
LINE
  5
250
330
5F
100
AcDbEntity
  8
0
  6
Continuous
 62
     7
100
AcDbLine
 10
5.9847350445414
 20
96.99996673892744
 30
0.0
 11
5.9847350445414
 21
97.19996673892743
 31
0.0
  0
LINE
  5
251
330
5F
100
AcDbEntity
  8
0
  6
Continuous
 62
     7
100
AcDbLine
 10
6.51536523454919
 20
96.99996673892744
 30
0.0
 11
6.51536523454919
 21
97.19996673892743
 31
0.0
  0
LINE
  5
252
330
5F
100
AcDbEntity
  8
0
  6
Continuous
 62
     7
100
AcDbLine
 10
6.42188873420199
 20
96.99996673892744
 30
0.0
 11
6.42188873420199
 21
97.19996673892743
 31
0.0
  0
LINE
  5
253
330
5F
100
AcDbEntity
  8
0
  6
Continuous
 62
     7
100
AcDbLine
 10
6.3339676811114
 20
96.99996673892744
 30
0.0
 11
6.3339676811114
 21
97.19996673892743
 31
0.0
  0
LINE
  5
254
330
5F
100
AcDbEntity
  8
0
  6
Continuous
 62
     7
100
AcDbLine
 10
6.3339676811114
 20
97.19996673892743
 30
0.0
 11
6.28710114927381
 21
97.19996673892743
 31
0.0
  0
LINE
  5
255
330
5F
100
AcDbEntity
  8
0
  6
Continuous
 62
     7
100
AcDbLine
 10
6.42188873420199
 20
97.19996673892743
 30
0.0
 11
6.3339676811114
 21
97.19996673892743
 31
0.0
  0
LINE
  5
256
330
5F
100
AcDbEntity
  8
0
  6
Continuous
 62
     7
100
AcDbLine
 10
6.68637602441888
 20
97.19996673892743
 30
0.0
 11
6.51536523454919
 21
97.19996673892743
 31
0.0
  0
LINE
  5
257
330
5F
100
AcDbEntity
  8
0
  6
Continuous
 62
     7
100
AcDbLine
 10
6.51536523454919
 20
97.19996673892743
 30
0.0
 11
6.42188873420199
 21
97.19996673892743
 31
0.0
  0
LINE
  5
258
330
5F
100
AcDbEntity
  8
0
  6
Continuous
 62
     7
100
AcDbLine
 10
5.884735044541
 20
96.99996673892744
 30
0.0
 11
5.884735044541
 21
97.19996673892743
 31
0.0
  0
LINE
  5
259
330
5F
100
AcDbEntity
  8
0
  6
Continuous
 62
     7
100
AcDbLine
 10
6.28710114927381
 20
96.99996673892744
 30
0.0
 11
6.28710114927381
 21
97.19996673892743
 31
0.0
  0
LINE
  5
25A
330
5F
100
AcDbEntity
  8
0
  6
Continuous
 62
     7
100
AcDbLine
 10
6.68637602441888
 20
96.99996673892744
 30
0.0
 11
6.68637602441888
 21
97.19996673892743
 31
0.0
  0
LINE
  5
25B
330
5F
100
AcDbEntity
  8
0
  6
Continuous
 62
     7
100
AcDbLine
 10
3.30973504455079
 20
96.99996673892744
 30
0.0
 11
3.30973504455079
 21
97.19996673892743
 31
0.0
  0
LINE
  5
25C
330
5F
100
AcDbEntity
  8
0
  6
Continuous
 62
     7
100
AcDbLine
 10
6.17492742341031
 20
96.99996673892744
 30
0.0
 11
6.17492742341031
 21
97.19996673892743
 31
0.0
  0
LINE
  5
25D
330
5F
100
AcDbEntity
  8
0
  6
Continuous
 62
     7
100
AcDbLine
 10
5.884735044541
 20
97.19996673892743
 30
0.0
 11
3.30973504455079
 21
97.19996673892743
 31
0.0
  0
LINE
  5
25E
330
5F
100
AcDbEntity
  8
0
  6
Continuous
 62
     7
100
AcDbLine
 10
5.9847350445414
 20
97.19996673892743
 30
0.0
 11
5.884735044541
 21
97.19996673892743
 31
0.0
  0
LINE
  5
25F
330
5F
100
AcDbEntity
  8
0
  6
Continuous
 62
     7
100
AcDbLine
 10
6.17492742341031
 20
97.19996673892743
 30
0.0
 11
5.9847350445414
 21
97.19996673892743
 31
0.0
  0
LINE
  5
260
330
5F
100
AcDbEntity
  8
0
  6
Continuous
 62
     7
100
AcDbLine
 10
2.5
 20
96.99996673892744
 30
0.0
 11
3.1347350445505
 21
96.99996673892633
 31
0.0
  0
LINE
  5
261
330
5F
100
AcDbEntity
  8
0
  6
Continuous
 62
     7
100
AcDbLine
 10
-2.5
 20
96.99996673892744
 30
0.0
 11
2.5
 21
96.99996673892744
 31
0.0
  0
LINE
  5
262
330
5F
100
AcDbEntity
  8
0
  6
Continuous
 62
     7
100
AcDbLine
 10
7.43693137436648
 20
96.99996673892744
 30
0.0
 11
7.76220904933899
 21
96.99996673892744
 31
0.0
  0
LINE
  5
263
330
5F
100
AcDbEntity
  8
0
  6
Continuous
 62
     7
100
AcDbLine
 10
13.006641348984
 20
96.99996673892744
 30
0.0
 11
13.006641348984
 21
97.19996673892743
 31
0.0
  0
LINE
  5
264
330
5F
100
AcDbEntity
  8
0
  6
Continuous
 62
     7
100
AcDbLine
 10
13.006641348984
 20
96.99996673892744
 30
0.0
 11
13.29999999999902
 21
96.99996673892633
 31
0.0
  0
LINE
  5
265
330
5F
100
AcDbEntity
  8
0
  6
Continuous
 62
     7
100
AcDbLine
 10
28.29999999999902
 20
74.69996673892442
 30
0.0
 11
28.99999999999997
 21
73.99996673892349
 31
0.0
  0
LINE
  5
266
330
5F
100
AcDbEntity
  8
0
  6
Continuous
 62
     7
100
AcDbLine
 10
28.99999999999997
 20
65.19996673892743
 30
0.0
 11
28.99999999999997
 21
73.99996673892349
 31
0.0
  0
LINE
  5
267
330
5F
100
AcDbEntity
  8
0
  6
Continuous
 62
     7
100
AcDbLine
 10
10.90664134898398
 20
97.19996673892743
 30
0.0
 11
13.006641348984
 21
97.19996673892743
 31
0.0
  0
LINE
  5
268
330
5F
100
AcDbEntity
  8
0
  6
Continuous
 62
     7
100
AcDbLine
 10
10.65055534993903
 20
96.99996673892744
 30
0.0
 11
10.90664134898398
 21
96.99996673892744
 31
0.0
  0
LINE
  5
269
330
5F
100
AcDbEntity
  8
0
  6
Continuous
 62
     7
100
AcDbLine
 10
10.65055534993903
 20
96.99996673892744
 30
0.0
 11
10.65055534993903
 21
97.19996673892743
 31
0.0
  0
LINE
  5
26A
330
5F
100
AcDbEntity
  8
0
  6
Continuous
 62
     7
100
AcDbLine
 10
10.90664134898398
 20
96.99996673892744
 30
0.0
 11
10.90664134898398
 21
97.19996673892743
 31
0.0
  0
LINE
  5
26B
330
5F
100
AcDbEntity
  8
0
  6
Continuous
 62
     7
100
AcDbLine
 10
10.65055534993903
 20
97.19996673892743
 30
0.0
 11
9.97656840327872
 21
97.19996673892743
 31
0.0
  0
LINE
  5
26C
330
5F
100
AcDbEntity
  8
0
  6
Continuous
 62
     7
100
AcDbLine
 10
9.97656840327872
 20
96.99996673892633
 30
0.0
 11
9.97656840327872
 21
97.19996673892743
 31
0.0
  0
LINE
  5
26D
330
5F
100
AcDbEntity
  8
0
  6
Continuous
 62
     7
100
AcDbLine
 10
9.45156840327857
 20
97.19996673892743
 30
0.0
 11
9.97656840327872
 21
97.19996673892743
 31
0.0
  0
LINE
  5
26E
330
5F
100
AcDbEntity
  8
0
  6
Continuous
 62
     7
100
AcDbLine
 10
9.45156840327857
 20
96.99996673892744
 30
0.0
 11
9.45156840327857
 21
97.19996673892743
 31
0.0
  0
LINE
  5
26F
330
5F
100
AcDbEntity
  8
0
  6
Continuous
 62
     7
100
AcDbLine
 10
9.45156840327857
 20
96.99996673892744
 30
0.0
 11
9.97656840327872
 21
96.99996673892633
 31
0.0
  0
LINE
  5
270
330
5F
100
AcDbEntity
  8
0
  6
Continuous
 62
     7
100
AcDbLine
 10
9.97656840327872
 20
96.99996673892633
 30
0.0
 11
10.65055534993903
 21
96.99996673892744
 31
0.0
  0
LINE
  5
271
330
5F
100
AcDbEntity
  8
0
  6
Continuous
 62
     7
100
AcDbLine
 10
10.90664134898398
 20
96.99996673892744
 30
0.0
 11
13.006641348984
 21
96.99996673892744
 31
0.0
  0
LINE
  5
272
330
5F
100
AcDbEntity
  8
0
  6
Continuous
 62
     7
100
AcDbLine
 10
9.45156840327857
 20
97.19996673892743
 30
0.0
 11
7.76220904933899
 21
97.19996673892743
 31
0.0
  0
LINE
  5
273
330
5F
100
AcDbEntity
  8
0
  6
Continuous
 62
     7
100
AcDbLine
 10
7.76220904933899
 20
96.99996673892744
 30
0.0
 11
9.45156840327857
 21
96.99996673892744
 31
0.0
  0
LINE
  5
274
330
5F
100
AcDbEntity
  8
0
  6
Continuous
 62
     7
100
AcDbLine
 10
7.76220904933899
 20
96.99996673892744
 30
0.0
 11
7.76220904933899
 21
97.19996673892743
 31
0.0
  0
LINE
  5
275
330
5F
100
AcDbEntity
  8
0
  6
Continuous
 62
     7
100
AcDbLine
 10
7.76220904933899
 20
97.19996673892743
 30
0.0
 11
7.43693137436648
 21
97.19996673892743
 31
0.0
  0
LINE
  5
276
330
5F
100
AcDbEntity
  8
0
  6
Continuous
 62
     7
100
AcDbLine
 10
-28.99999999999999
 20
73.99996673892349
 30
0.0
 11
28.99999999999997
 21
73.99996673892349
 31
0.0
  0
LINE
  5
277
330
5F
100
AcDbEntity
  8
0
  6
Continuous
 62
     7
100
AcDbLine
 10
-28.99999999999999
 20
65.19996673892743
 30
0.0
 11
-28.99999999999999
 21
73.99996673892349
 31
0.0
  0
LINE
  5
278
330
5F
100
AcDbEntity
  8
0
  6
Continuous
 62
     7
100
AcDbLine
 10
-28.299999999999
 20
81.99996673892633
 30
0.0
 11
28.29999999999902
 21
81.99996673892633
 31
0.0
  0
LINE
  5
279
330
5F
100
AcDbEntity
  8
0
  6
Continuous
 62
     7
100
AcDbLine
 10
-28.299999999999
 20
74.69996673892442
 30
0.0
 11
28.29999999999902
 21
74.69996673892442
 31
0.0
  0
LINE
  5
27A
330
5F
100
AcDbEntity
  8
0
  6
Continuous
 62
     7
100
AcDbLine
 10
-28.299999999999
 20
74.69996673892442
 30
0.0
 11
-28.299999999999
 21
81.99996673892633
 31
0.0
  0
LINE
  5
27B
330
5F
100
AcDbEntity
  8
0
  6
Continuous
 62
     7
100
AcDbLine
 10
28.29999999999902
 20
74.69996673892442
 30
0.0
 11
28.29999999999902
 21
81.99996673892633
 31
0.0
  0
LINE
  5
27C
330
5F
100
AcDbEntity
  8
0
  6
Continuous
 62
     7
100
AcDbLine
 10
-28.299999999999
 20
74.69996673892442
 30
0.0
 11
-28.99999999999999
 21
73.99996673892349
 31
0.0
  0
ARC
  5
27D
330
5F
100
AcDbEntity
  8
0
  6
Continuous
 62
     7
100
AcDbCircle
 10
13.29999999999902
 20
81.99996673892633
 30
0.0
 40
15.0
100
AcDbArc
 50
0.0
 51
90.0
  0
ARC
  5
27E
330
5F
100
AcDbEntity
  8
0
  6
Continuous
 62
     7
100
AcDbCircle
 10
-13.29999999999902
 20
81.99996673892633
 30
0.0
 40
15.0
100
AcDbArc
 50
90.0
 51
180.0
  0
ENDBLK
  5
61
330
5F
100
AcDbEntity
  8
0
100
AcDbBlockEnd
  0
BLOCK
  5
66
330
62
100
AcDbEntity
  8
0
100
AcDbBlockBegin
  2
hl904
 70
     0
 71
     0
 10
0.0
 20
0.0
 30
0.0
  3
hl904
  1

  0
INSERT
  5
63
330
62
100
AcDbEntity
  8
0
100
AcDbBlockReference
  2
Holländer6_4
 10
-28.49999999999993
 20
0.98007408228025
 30
0.0
  0
INSERT
  5
64
330
62
100
AcDbEntity
  8
0
100
AcDbBlockReference
  2
HL904Körper__3
 10
-28.99999999999999
 20
17.98007408228025
 30
0.0
  0
INSERT
  5
65
330
62
100
AcDbEntity
  8
0
100
AcDbBlockReference
  2
HL904Deckel__4
 10
-28.99999999999999
 20
65.19996673892743
 30
0.0
  0
ENDBLK
  5
67
330
62
100
AcDbEntity
  8
0
100
AcDbBlockEnd
  0
BLOCK
  5
287
330
27F
100
AcDbEntity
  8
0
100
AcDbBlockBegin
  2
*D11
 70
     1
 71
     0
 10
0.0
 20
0.0
 30
0.0
  3
*D11
  1

  0
LINE
  5
280
330
27F
100
AcDbEntity
  8
1
  6
Continuous
 62
     4
100
AcDbLine
 10
-20.0
 20
-70.3790890884184
 30
0.0
 11
20.0
 21
-70.3790890884184
 31
0.0
  0
LINE
  5
281
330
27F
100
AcDbEntity
  8
1
  6
Continuous
 62
     4
100
AcDbLine
 10
-20.0
 20
-2.79036152342783
 30
0.0
 11
-20.0
 21
-72.3790890884184
 31
0.0
  0
LINE
  5
282
330
27F
100
AcDbEntity
  8
1
  6
Continuous
 62
     4
100
AcDbLine
 10
20.0
 20
-2.79036152342783
 30
0.0
 11
20.0
 21
-72.3790890884184
 31
0.0
  0
SOLID
  5
283
330
27F
100
AcDbEntity
  8
1
 62
     4
100
AcDbTrace
 10
13.0
 20
-71.30065657153017
 30
0.0
 11
13.0
 21
-69.45752160530662
 31
0.0
 12
20.0
 22
-70.3790890884184
 32
0.0
 13
20.0
 23
-70.3790890884184
 33
0.0
  0
SOLID
  5
284
330
27F
100
AcDbEntity
  8
1
 62
     4
100
AcDbTrace
 10
-13.0
 20
-69.45752160530662
 30
0.0
 11
-13.0
 21
-71.30065657153017
 31
0.0
 12
-20.0
 22
-70.3790890884184
 32
0.0
 13
-20.0
 23
-70.3790890884184
 33
0.0
  0
MTEXT
  5
286
330
27F
100
AcDbEntity
  8
1
 62
     1
100
AcDbMText
 10
-8.85515191831636
 20
-68.37911691672369
 30
0.0
 40
7.0
 41
0.0
 71
     7
 72
     1
  1
\C1;DN\C1;40
  7
CONVERTER_11
 11
0.9999999999970619
 21
2.424068405545306E-6
 31
0.0
 73
     1
 44
0.60024009603842
  0
ENDBLK
  5
288
330
27F
100
AcDbEntity
  8
0
100
AcDbBlockEnd
  0
BLOCK
  5
292
330
28B
100
AcDbEntity
  8
0
100
AcDbBlockBegin
  2
*D12
 70
     1
 71
     0
 10
0.0
 20
0.0
 30
0.0
  3
*D12
  1

  0
LINE
  5
28C
330
28B
100
AcDbEntity
  8
1
  6
Continuous
 62
     4
100
AcDbLine
 10
-25.0
 20
-82.5632522357455
 30
0.0
 11
25.0
 21
-82.5632522357455
 31
0.0
  0
LINE
  5
28D
330
28B
100
AcDbEntity
  8
1
  6
Continuous
 62
     4
100
AcDbLine
 10
-25.0
 20
-53.50003326106162
 30
0.0
 11
-25.0
 21
-84.5632522357455
 31
0.0
  0
LINE
  5
28E
330
28B
100
AcDbEntity
  8
1
  6
Continuous
 62
     4
100
AcDbLine
 10
25.0
 20
-53.50003326106162
 30
0.0
 11
25.0
 21
-84.5632522357455
 31
0.0
  0
SOLID
  5
28F
330
28B
100
AcDbEntity
  8
1
 62
     4
100
AcDbTrace
 10
-20.0
 20
-81.90498974780851
 30
0.0
 11
-20.0
 21
-83.22151472368247
 31
0.0
 12
-25.0
 22
-82.5632522357455
 32
0.0
 13
-25.0
 23
-82.5632522357455
 33
0.0
  0
SOLID
  5
290
330
28B
100
AcDbEntity
  8
1
 62
     4
100
AcDbTrace
 10
20.0
 20
-83.22151472368247
 30
0.0
 11
20.0
 21
-81.90498974780851
 31
0.0
 12
25.0
 22
-82.5632522357455
 32
0.0
 13
25.0
 23
-82.5632522357455
 33
0.0
  0
MTEXT
  5
291
330
28B
100
AcDbEntity
  8
1
 62
     1
100
AcDbMText
 10
-17.74253665738926
 20
-80.56327211310642
 30
0.0
 40
5.0
 41
0.0
 71
     7
 72
     1
  1
\C1;DN\C1;50\C1;/DN32
  7
CONVERTER_11
 11
0.9999999999970619
 21
2.424068405545306E-6
 31
0.0
 73
     1
 44
0.60024009603842
  0
ENDBLK
  5
293
330
28B
100
AcDbEntity
  8
0
100
AcDbBlockEnd
  0
BLOCK
  5
29D
330
296
100
AcDbEntity
  8
0
100
AcDbBlockBegin
  2
*D13
 70
     1
 71
     0
 10
0.0
 20
0.0
 30
0.0
  3
*D13
  1

  0
LINE
  5
297
330
296
100
AcDbEntity
  8
1
  6
Continuous
 62
     4
100
AcDbLine
 10
-40.2952436993386
 20
0.0
 30
0.0
 11
-40.2952436993386
 21
96.99996673892633
 31
0.0
  0
LINE
  5
298
330
296
100
AcDbEntity
  8
1
  6
Continuous
 62
     4
100
AcDbLine
 10
-26.11649281481149
 20
0.0
 30
0.0
 11
-42.2952436993386
 21
0.0
 31
0.0
  0
LINE
  5
299
330
296
100
AcDbEntity
  8
1
  6
Continuous
 62
     4
100
AcDbLine
 10
-13.29999999999902
 20
96.99996673892633
 30
0.0
 11
-42.2952436993386
 21
96.99996673892633
 31
0.0
  0
SOLID
  5
29A
330
296
100
AcDbEntity
  8
1
 62
     4
100
AcDbTrace
 10
-39.37367621622683
 20
89.99996673892633
 30
0.0
 11
-41.21681118245037
 21
89.99996673892633
 31
0.0
 12
-40.2952436993386
 22
96.99996673892633
 32
0.0
 13
-40.2952436993386
 23
96.99996673892633
 33
0.0
  0
SOLID
  5
29B
330
296
100
AcDbEntity
  8
1
 62
     4
100
AcDbTrace
 10
-41.21681118245037
 20
7.0
 30
0.0
 11
-39.37367621622683
 21
7.0
 31
0.0
 12
-40.2952436993386
 22
0.0
 32
0.0
 13
-40.2952436993386
 23
0.0
 33
0.0
  0
MTEXT
  5
29C
330
296
100
AcDbEntity
  8
1
 62
     1
100
AcDbMText
 10
-42.2952436993386
 20
42.4643241142926
 30
0.0
 40
7.0
 41
0.0
 71
     7
 72
     1
  1
97
  7
CONVERTER_11
 11
0.0
 21
1.0
 31
0.0
 73
     1
 44
0.60024009603842
  0
ENDBLK
  5
29E
330
296
100
AcDbEntity
  8
0
100
AcDbBlockEnd
  0
BLOCK
  5
2A9
330
2A1
100
AcDbEntity
  8
0
100
AcDbBlockBegin
  2
*D14
 70
     1
 71
     0
 10
0.0
 20
0.0
 30
0.0
  3
*D14
  1

  0
LINE
  5
2A2
330
2A1
100
AcDbEntity
  8
1
  6
Continuous
 62
     4
100
AcDbLine
 10
-23.90149999999998
 20
27.0
 30
0.0
 11
23.90149999999997
 21
27.0
 31
0.0
  0
LINE
  5
2A3
330
2A1
100
AcDbEntity
  8
1
  6
Continuous
 62
     4
100
AcDbLine
 10
23.90149999999997
 20
27.0
 30
0.0
 11
53.9265535151604
 21
27.0
 31
0.0
  0
LINE
  5
2A4
330
2A1
100
AcDbEntity
  8
1
  6
Continuous
 62
     4
100
AcDbLine
 10
-23.90149999999998
 20
17.0
 30
0.0
 11
-23.90149999999998
 21
29.0
 31
0.0
  0
LINE
  5
2A5
330
2A1
100
AcDbEntity
  8
1
  6
Continuous
 62
     4
100
AcDbLine
 10
23.90149999999997
 20
17.0
 30
0.0
 11
23.90149999999997
 21
29.0
 31
0.0
  0
SOLID
  5
2A6
330
2A1
100
AcDbEntity
  8
1
 62
     4
100
AcDbTrace
 10
16.90149999999997
 20
26.07843251688823
 30
0.0
 11
16.90149999999997
 21
27.92156748311177
 31
0.0
 12
23.90149999999997
 22
27.0
 32
0.0
 13
23.90149999999997
 23
27.0
 33
0.0
  0
SOLID
  5
2A7
330
2A1
100
AcDbEntity
  8
1
 62
     4
100
AcDbTrace
 10
-16.90149999999998
 20
27.92156748311177
 30
0.0
 11
-16.90149999999998
 21
26.07843251688823
 31
0.0
 12
-23.90149999999998
 22
27.0
 32
0.0
 13
-23.90149999999998
 23
27.0
 33
0.0
  0
MTEXT
  5
2A8
330
2A1
100
AcDbEntity
  8
1
 62
     1
100
AcDbMText
 10
35.02655351516039
 20
29.0
 30
0.0
 40
7.0
 41
0.0
 71
     7
 72
     1
  1
6/4"
  7
CONVERTER_11
 11
0.9999999999970619
 21
2.424068405545306E-6
 31
0.0
 73
     1
 44
0.60024009603842
  0
ENDBLK
  5
2AA
330
2A1
100
AcDbEntity
  8
0
100
AcDbBlockEnd
  0
ENDSEC
  0
SECTION
  2
ENTITIES
  0
INSERT
  5
68
330
1F
100
AcDbEntity
  8
0
100
AcDbBlockReference
  2
Drfsicht1
 10
0.0
 20
-138.3299487817058
 30
0.0
  0
INSERT
  5
69
330
1F
100
AcDbEntity
  8
1
100
AcDbBlockReference
  2
HL_904_Übergangsrohr_Artikel
 10
-35.78377361346793
 20
40.26748541756172
 30
0.0
  0
INSERT
  5
6A
330
1F
100
AcDbEntity
  8
0
100
AcDbBlockReference
  2
hl904
 10
0.0
 20
0.0
 30
0.0
  0
DIMENSION
  5
28A
330
1F
100
AcDbEntity
  8
1
100
AcDbDimension
  2
*D11
 10
20.0
 20
-70.3790890884184
 30
0.0
 11
0.17484808164991
 21
-64.8790890884184
 31
0.0
 70
    32
  1
<>
 71
     5
 42
-1.0
 53
0.00013888888889
  3
ME10_DIM_10
100
AcDbAlignedDimension
 13
-20.0
 23
-2.79036152342783
 33
0.0
 14
20.0
 24
-2.79036152342783
 34
0.0
100
AcDbRotatedDimension
  0
DIMENSION
  5
295
330
1F
100
AcDbEntity
  8
1
100
AcDbDimension
  2
*D12
 10
-25.0
 20
-82.5632522357455
 30
0.0
 11
0.45746334258665
 21
-78.0632522357455
 31
0.0
 70
    32
  1
<>
 71
     5
 42
-1.0
 53
0.00013888888889
  3
ME10_DIM_11
100
AcDbAlignedDimension
 13
25.0
 23
-53.50003326106162
 33
0.0
 14
-25.0
 24
-53.50003326106162
 34
0.0
100
AcDbRotatedDimension
  0
DIMENSION
  5
2A0
330
1F
100
AcDbEntity
  8
1
100
AcDbDimension
  2
*D13
 10
-40.2952436993386
 20
96.99996673892633
 30
0.0
 11
-45.7952436993386
 21
47.7143241142926
 31
0.0
 70
    32
  1
<>
 71
     5
 42
-1.0
 53
-90.0
  3
ME10_DIM_12
100
AcDbAlignedDimension
 13
-26.11649281481149
 23
0.0
 33
0.0
 14
-13.29999999999902
 24
96.99996673892633
 34
0.0
 50
-90.0
100
AcDbRotatedDimension
  0
DIMENSION
  5
2AC
330
1F
100
AcDbEntity
  8
1
100
AcDbDimension
  2
*D14
 10
23.90149999999997
 20
27.0
 30
0.0
 11
44.4765535151604
 21
32.5
 31
0.0
 70
    32
  1
6/4"
 71
     5
 42
-1.0
 53
0.00013888888889
  3
ME10_DIM_13
100
AcDbAlignedDimension
 13
-23.90149999999998
 23
17.0
 33
0.0
 14
23.90149999999997
 24
17.0
 34
0.0
100
AcDbRotatedDimension
  0
ENDSEC
  0
SECTION
  2
OBJECTS
  0
DICTIONARY
  5
C
330
0
100
AcDbDictionary
281
     1
  3
ACAD_GROUP
350
D
  3
ACAD_LAYOUT
350
1A
  3
ACAD_MLINESTYLE
350
17
  3
ACAD_PLOTSETTINGS
350
19
  3
ACAD_PLOTSTYLENAME
350
E
  3
ACAD_TABLESTYLE
350
2AD
  3
ACAD_VISUALSTYLE
350
2A
  0
DICTIONARY
  5
D
102
{ACAD_REACTORS
330
C
102
}
330
C
100
AcDbDictionary
281
     1
  0
DICTIONARY
  5
1A
102
{ACAD_REACTORS
330
C
102
}
330
C
100
AcDbDictionary
281
     1
  3
Layout1
350
1E
  3
Layout2
350
26
  3
Model
350
22
  0
DICTIONARY
  5
17
102
{ACAD_REACTORS
330
C
102
}
330
C
100
AcDbDictionary
281
     1
  3
Standard
350
18
  0
DICTIONARY
  5
19
102
{ACAD_REACTORS
330
C
102
}
330
C
100
AcDbDictionary
281
     1
  0
ACDBDICTIONARYWDFLT
  5
E
102
{ACAD_REACTORS
330
C
102
}
330
C
100
AcDbDictionary
281
     1
  3
Normal
350
F
100
AcDbDictionaryWithDefault
340
F
  0
DICTIONARY
  5
2AD
102
{ACAD_REACTORS
330
C
102
}
330
C
100
AcDbDictionary
281
     1
  0
DICTIONARY
  5
2A
102
{ACAD_REACTORS
330
C
102
}
330
C
100
AcDbDictionary
281
     1
  3
2dWireframe
350
2F
  3
3D Hidden
350
31
  3
3dWireframe
350
30
  3
Basic
350
32
  3
Brighten
350
36
  3
ColorChange
350
3A
  3
Conceptual
350
34
  3
Dim
350
35
  3
Facepattern
350
39
  3
Flat
350
2B
  3
FlatWithEdges
350
2C
  3
Gouraud
350
2D
  3
GouraudWithEdges
350
2E
  3
Linepattern
350
38
  3
Realistic
350
33
  3
Thicken
350
37
  0
LAYOUT
  5
1E
102
{ACAD_REACTORS
330
1A
102
}
330
1A
100
AcDbPlotSettings
  1

  2
none_device
  4

  6

 40
0.0
 41
0.0
 42
0.0
 43
0.0
 44
0.0
 45
0.0
 46
0.0
 47
0.0
 48
0.0
 49
0.0
140
0.0
141
0.0
142
1.0
143
1.0
 70
   688
 72
     0
 73
     0
 74
     5
  7

 75
    16
147
1.0
148
0.0
149
0.0
100
AcDbLayout
  1
Layout1
 70
     1
 71
     1
 10
0.0
 20
0.0
 11
12.0
 21
9.0
 12
0.0
 22
0.0
 32
0.0
 14
1.00000000000000E+20
 24
1.00000000000000E+20
 34
1.00000000000000E+20
 15
-1.00000000000000E+20
 25
-1.00000000000000E+20
 35
-1.00000000000000E+20
146
0.0
 13
0.0
 23
0.0
 33
0.0
 16
1.0
 26
0.0
 36
0.0
 17
0.0
 27
1.0
 37
0.0
 76
     0
330
1B
  0
LAYOUT
  5
26
102
{ACAD_REACTORS
330
1A
102
}
330
1A
100
AcDbPlotSettings
  1

  2
none_device
  4

  6

 40
0.0
 41
0.0
 42
0.0
 43
0.0
 44
0.0
 45
0.0
 46
0.0
 47
0.0
 48
0.0
 49
0.0
140
0.0
141
0.0
142
1.0
143
1.0
 70
   688
 72
     0
 73
     0
 74
     5
  7

 75
    16
147
1.0
148
0.0
149
0.0
100
AcDbLayout
  1
Layout2
 70
     1
 71
     2
 10
0.0
 20
0.0
 11
0.0
 21
0.0
 12
0.0
 22
0.0
 32
0.0
 14
0.0
 24
0.0
 34
0.0
 15
0.0
 25
0.0
 35
0.0
146
0.0
 13
0.0
 23
0.0
 33
0.0
 16
1.0
 26
0.0
 36
0.0
 17
0.0
 27
1.0
 37
0.0
 76
     0
330
23
  0
LAYOUT
  5
22
102
{ACAD_REACTORS
330
1A
102
}
330
1A
100
AcDbPlotSettings
  1

  2
none_device
  4

  6

 40
0.0
 41
0.0
 42
0.0
 43
0.0
 44
0.0
 45
0.0
 46
0.0
 47
0.0
 48
0.0
 49
0.0
140
0.0
141
0.0
142
1.0
143
1.0
 70
  1712
 72
     0
 73
     0
 74
     0
  7

 75
     0
147
1.0
148
0.0
149
0.0
100
AcDbLayout
  1
Model
 70
     1
 71
     0
 10
0.0
 20
0.0
 11
12.0
 21
9.0
 12
0.0
 22
0.0
 32
0.0
 14
-49.2952436993386
 24
-170.2512138116131
 34
0.0
 15
53.9265535151604
 25
101.3763811866981
 35
0.0
146
0.0
 13
0.0
 23
0.0
 33
0.0
 16
1.0
 26
0.0
 36
0.0
 17
0.0
 27
1.0
 37
0.0
 76
     0
330
1F
331
29
  0
MLINESTYLE
  5
18
102
{ACAD_REACTORS
330
17
102
}
330
17
100
AcDbMlineStyle
  2
Standard
 70
     0
  3

 62
   256
 51
90.0
 52
90.0
 71
     2
 49
0.5
 62
   256
  6
BYLAYER
 49
-0.5
 62
   256
  6
BYLAYER
  0
ACDBPLACEHOLDER
  5
F
102
{ACAD_REACTORS
330
E
102
}
330
E
  0
VISUALSTYLE
  5
2F
102
{ACAD_REACTORS
330
2A
102
}
330
2A
100
AcDbVisualStyle
  2
2dWireframe
 70
     4
 71
     0
 72
     2
 73
     0
 90
        0
 40
-0.6
 41
-30.0
 62
     5
 63
     7
 74
     1
 91
        4
 64
     7
 65
   257
 75
     1
175
     1
 42
1.0
 92
        0
 66
   257
 43
1.0
 76
     1
 77
     6
 78
     2
 67
     7
 79
     5
170
     0
171
     0
290
     0
174
     0
 93
        1
 44
0.0
173
     0
291
     0
 45
0.0
1001
ACAD
1000
AcDbSavedByObjectVersion
1070
     0
  0
VISUALSTYLE
  5
31
102
{ACAD_REACTORS
330
2A
102
}
330
2A
100
AcDbVisualStyle
  2
3D Hidden
 70
     6
 71
     1
 72
     2
 73
     2
 90
        0
 40
-0.6
 41
-30.0
 62
     5
 63
     7
 74
     2
 91
        2
 64
     7
 65
   257
 75
     2
175
     1
 42
40.0
 92
        0
 66
   257
 43
1.0
 76
     1
 77
     6
 78
     2
 67
     7
 79
     3
170
     0
171
     0
290
     0
174
     0
 93
        1
 44
0.0
173
     0
291
     0
 45
0.0
1001
ACAD
1000
AcDbSavedByObjectVersion
1070
     0
  0
VISUALSTYLE
  5
30
102
{ACAD_REACTORS
330
2A
102
}
330
2A
100
AcDbVisualStyle
  2
3dWireframe
 70
     5
 71
     0
 72
     2
 73
     0
 90
        0
 40
-0.6
 41
-30.0
 62
     5
 63
     7
 74
     1
 91
        4
 64
     7
 65
   257
 75
     1
175
     1
 42
1.0
 92
        0
 66
   257
 43
1.0
 76
     1
 77
     6
 78
     2
 67
     7
 79
     5
170
     0
171
     0
290
     0
174
     0
 93
        1
 44
0.0
173
     0
291
     0
 45
0.0
1001
ACAD
1000
AcDbSavedByObjectVersion
1070
     0
  0
VISUALSTYLE
  5
32
102
{ACAD_REACTORS
330
2A
102
}
330
2A
100
AcDbVisualStyle
  2
Basic
 70
     7
 71
     1
 72
     0
 73
     1
 90
        0
 40
-0.6
 41
-30.0
 62
     5
 63
     7
 74
     0
 91
        4
 64
     7
 65
   257
 75
     1
175
     1
 42
1.0
 92
        8
 66
     7
 43
1.0
 76
     1
 77
     6
 78
     2
 67
     7
 79
     5
170
     0
171
     0
290
     0
174
     0
 93
        1
 44
0.0
173
     0
291
     1
 45
0.0
1001
ACAD
1000
AcDbSavedByObjectVersion
1070
     0
  0
VISUALSTYLE
  5
36
102
{ACAD_REACTORS
330
2A
102
}
330
2A
100
AcDbVisualStyle
  2
Brighten
 70
    12
 71
     2
 72
     2
 73
     0
 90
        0
 40
-0.6
 41
-30.0
 62
     5
 63
     7
 74
     1
 91
        4
 64
     7
 65
   257
 75
     1
175
     1
 42
1.0
 92
        8
 66
     7
 43
1.0
 76
     1
 77
     6
 78
     2
 67
     7
 79
     5
170
     0
171
     0
290
     0
174
     0
 93
        1
 44
50.0
173
     0
291
     1
 45
0.0
1001
ACAD
1000
AcDbSavedByObjectVersion
1070
     0
  0
VISUALSTYLE
  5
3A
102
{ACAD_REACTORS
330
2A
102
}
330
2A
100
AcDbVisualStyle
  2
ColorChange
 70
    16
 71
     2
 72
     2
 73
     3
 90
        0
 40
-0.6
 41
-30.0
 62
     5
 63
     8
 74
     1
 91
        4
 64
     7
 65
   257
 75
     1
175
     1
 42
1.0
 92
        8
 66
     8
 43
1.0
 76
     1
 77
     6
 78
     2
 67
     7
 79
     5
170
     0
171
     0
290
     0
174
     0
 93
        1
 44
0.0
173
     0
291
     1
 45
0.0
1001
ACAD
1000
AcDbSavedByObjectVersion
1070
     0
  0
VISUALSTYLE
  5
34
102
{ACAD_REACTORS
330
2A
102
}
330
2A
100
AcDbVisualStyle
  2
Conceptual
 70
     9
 71
     3
 72
     2
 73
     0
 90
        0
 40
-0.6
 41
-30.0
 62
     5
 63
     7
 74
     2
 91
        2
 64
     7
 65
   257
 75
     1
175
     1
 42
40.0
 92
        8
 66
     7
 43
1.0
 76
     1
 77
     6
 78
     2
 67
     7
 79
     3
170
     0
171
     0
290
     0
174
     0
 93
        1
 44
0.0
173
     0
291
     0
 45
0.0
1001
ACAD
1000
AcDbSavedByObjectVersion
1070
     0
  0
VISUALSTYLE
  5
35
102
{ACAD_REACTORS
330
2A
102
}
330
2A
100
AcDbVisualStyle
  2
Dim
 70
    11
 71
     2
 72
     2
 73
     0
 90
        0
 40
-0.6
 41
-30.0
 62
     5
 63
     7
 74
     1
 91
        4
 64
     7
 65
   257
 75
     1
175
     1
 42
1.0
 92
        8
 66
     7
 43
1.0
 76
     1
 77
     6
 78
     2
 67
     7
 79
     5
170
     0
171
     0
290
     0
174
     0
 93
        1
 44
-50.0
173
     0
291
     1
 45
0.0
1001
ACAD
1000
AcDbSavedByObjectVersion
1070
     0
  0
VISUALSTYLE
  5
39
102
{ACAD_REACTORS
330
2A
102
}
330
2A
100
AcDbVisualStyle
  2
Facepattern
 70
    15
 71
     2
 72
     2
 73
     0
 90
        0
 40
-0.6
 41
-30.0
 62
     5
 63
     7
 74
     1
 91
        4
 64
     7
 65
   257
 75
     1
175
     1
 42
1.0
 92
        8
 66
     7
 43
1.0
 76
     1
 77
     6
 78
     2
 67
     7
 79
     5
170
     0
171
     0
290
     0
174
     0
 93
        1
 44
0.0
173
     0
291
     1
 45
0.0
1001
ACAD
1000
AcDbSavedByObjectVersion
1070
     0
  0
VISUALSTYLE
  5
2B
102
{ACAD_REACTORS
330
2A
102
}
330
2A
100
AcDbVisualStyle
  2
Flat
 70
     0
 71
     2
 72
     1
 73
     1
 90
        2
 40
-0.6
 41
30.0
 62
     5
 63
     7
 74
     0
 91
        4
 64
     7
 65
   257
 75
     1
175
     1
 42
1.0
 92
        8
 66
     7
 43
1.0
 76
     1
 77
     6
 78
     2
 67
     7
 79
     5
170
     0
171
     0
290
     0
174
     0
 93
       13
 44
0.0
173
     0
291
     1
 45
0.0
1001
ACAD
1000
AcDbSavedByObjectVersion
1070
     0
  0
VISUALSTYLE
  5
2C
102
{ACAD_REACTORS
330
2A
102
}
330
2A
100
AcDbVisualStyle
  2
FlatWithEdges
 70
     1
 71
     2
 72
     1
 73
     1
 90
        2
 40
-0.6
 41
30.0
 62
     5
 63
     7
 74
     1
 91
        4
 64
     7
 65
   257
 75
     1
175
     1
 42
1.0
 92
        0
 66
   257
 43
1.0
 76
     1
 77
     6
 78
     2
 67
     7
 79
     5
170
     0
171
     0
290
     0
174
     0
 93
       13
 44
0.0
173
     0
291
     1
 45
0.0
1001
ACAD
1000
AcDbSavedByObjectVersion
1070
     0
  0
VISUALSTYLE
  5
2D
102
{ACAD_REACTORS
330
2A
102
}
330
2A
100
AcDbVisualStyle
  2
Gouraud
 70
     2
 71
     2
 72
     2
 73
     1
 90
        2
 40
-0.6
 41
30.0
 62
     5
 63
     7
 74
     0
 91
        4
 64
     7
 65
   257
 75
     1
175
     1
 42
1.0
 92
        0
 66
     7
 43
1.0
 76
     1
 77
     6
 78
     2
 67
     7
 79
     5
170
     0
171
     0
290
     0
174
     0
 93
       13
 44
0.0
173
     0
291
     1
 45
0.0
1001
ACAD
1000
AcDbSavedByObjectVersion
1070
     0
  0
VISUALSTYLE
  5
2E
102
{ACAD_REACTORS
330
2A
102
}
330
2A
100
AcDbVisualStyle
  2
GouraudWithEdges
 70
     3
 71
     2
 72
     2
 73
     1
 90
        2
 40
-0.6
 41
30.0
 62
     5
 63
     7
 74
     1
 91
        4
 64
     7
 65
   257
 75
     1
175
     1
 42
1.0
 92
        0
 66
   257
 43
1.0
 76
     1
 77
     6
 78
     2
 67
     7
 79
     5
170
     0
171
     0
290
     0
174
     0
 93
       13
 44
0.0
173
     0
291
     1
 45
0.0
1001
ACAD
1000
AcDbSavedByObjectVersion
1070
     0
  0
VISUALSTYLE
  5
38
102
{ACAD_REACTORS
330
2A
102
}
330
2A
100
AcDbVisualStyle
  2
Linepattern
 70
    14
 71
     2
 72
     2
 73
     0
 90
        0
 40
-0.6
 41
-30.0
 62
     5
 63
     7
 74
     1
 91
        4
 64
     7
 65
   257
 75
     7
175
     7
 42
1.0
 92
        8
 66
     7
 43
1.0
 76
     1
 77
     6
 78
     2
 67
     7
 79
     5
170
     0
171
     0
290
     0
174
     0
 93
        1
 44
0.0
173
     0
291
     1
 45
0.0
1001
ACAD
1000
AcDbSavedByObjectVersion
1070
     0
  0
VISUALSTYLE
  5
33
102
{ACAD_REACTORS
330
2A
102
}
330
2A
100
AcDbVisualStyle
  2
Realistic
 70
     8
 71
     2
 72
     2
 73
     0
 90
        0
 40
-0.6
 41
-30.0
 62
     5
 63
     7
 74
     1
 91
        0
 64
     7
 65
   257
 75
     1
175
     1
 42
1.0
 92
        8
 66
     8
 43
1.0
 76
     1
 77
     6
 78
     2
 67
     7
 79
     5
170
     0
171
     0
290
     0
174
     0
 93
       13
 44
0.0
173
     0
291
     0
 45
0.0
1001
ACAD
1000
AcDbSavedByObjectVersion
1070
     0
  0
VISUALSTYLE
  5
37
102
{ACAD_REACTORS
330
2A
102
}
330
2A
100
AcDbVisualStyle
  2
Thicken
 70
    13
 71
     2
 72
     2
 73
     0
 90
        0
 40
-0.6
 41
-30.0
 62
     5
 63
     7
 74
     1
 91
        4
 64
     7
 65
   257
 75
     1
175
     1
 42
1.0
 92
       12
 66
     7
 43
1.0
 76
     1
 77
     6
 78
     2
 67
     7
 79
     5
170
     0
171
     0
290
     0
174
     0
 93
        1
 44
0.0
173
     0
291
     1
 45
0.0
1001
ACAD
1000
AcDbSavedByObjectVersion
1070
     0
  0
ENDSEC
  0
EOF
